MKV-Dateien verbinden

Diese Seite verwendet Cookies. Durch die Nutzung unserer Seite erklären Sie sich damit einverstanden, dass wir Cookies setzen. Weitere Informationen

  • MKV-Dateien verbinden

    Anzeige
    Hallo,

    ich will mehrere MKV-Dateien miteinander verbinden. Geht das mit MKVMerge? Man muss doch einfach nur die Anhängen-Option für die MKV-Dateien verwenden, die man verbinden will, oder nicht? Wenn ich das mache bekomme ich folgende Fehlermeldung: "Fehler: Der Track Nummer 0 aus der Datei 'X' kann nicht an den Track Nummer 0 aus der Datei 'Y' angehängt werden. Die Trackparameter stimmen nicht überein." Die Dateien heißen selbstverständlich nicht X und Y. Was mache ich falsch?

    Dieser Beitrag wurde bereits 3 mal editiert, zuletzt von Lester ()

  • Die Dateien müssen (bis auf die länge) wirklich exakt gleich sein...
    d.h. Gleich Bitrate, Gleiche Framerate usw.
    Es wäre langsam mal wieder Zeit diese Signatur zu überarbeiten, ich bin aber wie immer zu faul. Deshalb gibt´s jetzt wieder diesen Platzhaltertext.
    Ihr könntet solange doch mal auf meinem Kanal vorbeischauen: [url]www.youtube.com/Dir3ct0rLP[/url]

  • Ich habe bisher nur geschafft 2 Videos miteinander zu verbinden, den einen schmeiß ich so rein, den anderen über die anhängen Option... die bitrate muss nicht gleich sein, dass wäre echt doof die Beschränkung. Wenn die Audio flac ist kannst du die nicht verbinden, müsstest erst die Audio Spuren zusammen mischen
    Alle Aktuelle & Beendete Projekte von mir sind in meinem Profil zu finden


    Website: In Planung ...|... Youtube: CruelDaemonLP ...|... Steam: CruelDaemonLP
  • So, hier für alle 3 Videos die Infos.
    Spoiler anzeigen
    General
    Complete name : F:\MKVs lets plays\tony hawk schule part 1.mkv
    Format : Matroska
    Format version : Version 2
    File size : 1.70 MiB
    Duration : 53s 200ms
    Overall bit rate : 267 Kbps
    Writing application : x264 r2334 a3ac64b
    Writing library : Haali Matroska Writer b0

    Video
    ID : 1
    Format : AVC
    Format/Info : Advanced Video Codec
    Format profile : High@L3.0
    Format settings, CABAC : Yes
    Format settings, ReFrames : 4 frames
    Codec ID : V_MPEG4/ISO/AVC
    Duration : 53s 200ms
    Bit rate : 262 Kbps
    Width : 640 pixels
    Height : 480 pixels
    Display aspect ratio : 4:3
    Frame rate mode : Constant
    Frame rate : 30.000 fps
    Color space : YUV
    Chroma subsampling : 4:2:0
    Bit depth : 8 bits
    Scan type : Progressive
    Bits/(Pixel*Frame) : 0.028
    Stream size : 1.66 MiB (98%)
    Writing library : x264 core 133 r2334 a3ac64b
    Encoding settings : cabac=1 / ref=3 / deblock=1:0:0 / analyse=0x3:0x113 / me=hex / subme=7 / psy=1 / psy_rd=1.00:0.00 / mixed_ref=1 / me_range=16 / chroma_me=1 / trellis=1 / 8x8dct=1 / cqm=0 / deadzone=21,11 / fast_pskip=1 / chroma_qp_offset=-2 / threads=6 / lookahead_threads=1 / sliced_threads=0 / nr=0 / decimate=1 / interlaced=0 / bluray_compat=0 / constrained_intra=0 / bframes=3 / b_pyramid=2 / b_adapt=1 / b_bias=0 / direct=1 / weightb=1 / open_gop=0 / weightp=2 / keyint=300 / keyint_min=30 / scenecut=40 / intra_refresh=0 / rc_lookahead=40 / rc=crf / mbtree=1 / crf=20.0 / qcomp=0.60 / qpmin=0 / qpmax=69 / qpstep=4 / ip_ratio=1.40 / aq=1:1.00
    Language : English
    Default : Yes
    Forced : No



    Spoiler anzeigen
    General
    Complete name : F:\MKVs lets plays\tony hawk schule part 2.mkv
    Format : Matroska
    Format version : Version 2
    File size : 326 MiB
    Duration : 12mn 47s
    Overall bit rate : 3 569 Kbps
    Writing application : x264 r2334 a3ac64b
    Writing library : Haali Matroska Writer b0

    Video
    ID : 1
    Format : AVC
    Format/Info : Advanced Video Codec
    Format profile : High@L3.1
    Format settings, CABAC : Yes
    Format settings, ReFrames : 4 frames
    Codec ID : V_MPEG4/ISO/AVC
    Duration : 12mn 47s
    Bit rate : 3 498 Kbps
    Width : 1 024 pixels
    Height : 768 pixels
    Display aspect ratio : 4:3
    Frame rate mode : Constant
    Frame rate : 30.000 fps
    Color space : YUV
    Chroma subsampling : 4:2:0
    Bit depth : 8 bits
    Scan type : Progressive
    Bits/(Pixel*Frame) : 0.148
    Stream size : 320 MiB (98%)
    Writing library : x264 core 133 r2334 a3ac64b
    Encoding settings : cabac=1 / ref=3 / deblock=1:0:0 / analyse=0x3:0x113 / me=hex / subme=7 / psy=1 / psy_rd=1.00:0.00 / mixed_ref=1 / me_range=16 / chroma_me=1 / trellis=1 / 8x8dct=1 / cqm=0 / deadzone=21,11 / fast_pskip=1 / chroma_qp_offset=-2 / threads=6 / lookahead_threads=1 / sliced_threads=0 / nr=0 / decimate=1 / interlaced=0 / bluray_compat=0 / constrained_intra=0 / bframes=3 / b_pyramid=2 / b_adapt=1 / b_bias=0 / direct=1 / weightb=1 / open_gop=0 / weightp=2 / keyint=300 / keyint_min=30 / scenecut=40 / intra_refresh=0 / rc_lookahead=40 / rc=crf / mbtree=1 / crf=20.0 / qcomp=0.60 / qpmin=0 / qpmax=69 / qpstep=4 / ip_ratio=1.40 / aq=1:1.00
    Language : English
    Default : Yes
    Forced : No






    Spoiler anzeigen
    General
    Complete name : F:\MKVs lets plays\tony hawk marseille.mkv
    Format : Matroska
    Format version : Version 2
    File size : 133 MiB
    Duration : 4mn 43s
    Overall bit rate : 3 934 Kbps
    Writing application : x264 r2334 a3ac64b
    Writing library : Haali Matroska Writer b0

    Video
    ID : 1
    Format : AVC
    Format/Info : Advanced Video Codec
    Format profile : High@L3.1
    Format settings, CABAC : Yes
    Format settings, ReFrames : 4 frames
    Codec ID : V_MPEG4/ISO/AVC
    Duration : 4mn 43s
    Bit rate : 3 856 Kbps
    Width : 1 024 pixels
    Height : 768 pixels
    Display aspect ratio : 4:3
    Frame rate mode : Constant
    Frame rate : 30.000 fps
    Color space : YUV
    Chroma subsampling : 4:2:0
    Bit depth : 8 bits
    Scan type : Progressive
    Bits/(Pixel*Frame) : 0.163
    Stream size : 130 MiB (98%)
    Writing library : x264 core 133 r2334 a3ac64b
    Encoding settings : cabac=1 / ref=3 / deblock=1:0:0 / analyse=0x3:0x113 / me=hex / subme=7 / psy=1 / psy_rd=1.00:0.00 / mixed_ref=1 / me_range=16 / chroma_me=1 / trellis=1 / 8x8dct=1 / cqm=0 / deadzone=21,11 / fast_pskip=1 / chroma_qp_offset=-2 / threads=6 / lookahead_threads=1 / sliced_threads=0 / nr=0 / decimate=1 / interlaced=0 / bluray_compat=0 / constrained_intra=0 / bframes=3 / b_pyramid=2 / b_adapt=1 / b_bias=0 / direct=1 / weightb=1 / open_gop=0 / weightp=2 / keyint=300 / keyint_min=30 / scenecut=40 / intra_refresh=0 / rc_lookahead=40 / rc=crf / mbtree=1 / crf=20.0 / qcomp=0.60 / qpmin=0 / qpmax=69 / qpstep=4 / ip_ratio=1.40 / aq=1:1.00
    Language : English
    Default : Yes
    Forced : No

  • Ich habe nichts zum ausprobieren, ich habe die AVIs diesmal direkt zusammen gepackt, die rendern gerade. Also müssen die MKVs auch nicht hinterher wieder zusammen gefügt werden. Aber ja, die MKVS mit gleicher Auflösung konnte ich eben mit MKVMerke per Anhängen-Funktion verbinden. Nur bringt mir das nun nichts ohne das dritte Video auch noch damit zu verbinden. Jedenfalls weiß ich nun für die Zukunft, wie das funktioniert und worauf zu achten ist. Vielen Dank.