Muxen mit MKVMerge geht nichtmehr

Diese Seite verwendet Cookies. Durch die Nutzung unserer Seite erklären Sie sich damit einverstanden, dass wir Cookies setzen. Weitere Informationen

  • Muxen mit MKVMerge geht nichtmehr

    Anzeige
    Hi,
    Ich habe ein 1:45Minuten langes Video encodiert, was abspielbar ist und keine Fehler hat.
    Und eine 1:45 Minuten lange Tonspur, als .ogg.
    Wenn ich versuche diese Tonspur mit dem Video zu muxen wird es nur 1 Minute lang.
    Habe in den Einstellungen unter Global Nichts verändert und unter Chaptor und Attachments auch nichts gemacht.
    An was kann es liegen?
    Hier ein Screenshot:
    Hier auch noch die MediaInfo des Videos
    Spoiler anzeigen
    General
    Complete name : C:\Users\LemonLary\Videos\Aufnahmen\giveaway\LolClient 2014-03-14 15-02-46-364.mkv
    Format : Matroska
    Format version : Version 2
    File size : 14.8 MiB
    Duration : 1mn 0s
    Overall bit rate : 2 056 Kbps
    Writing application : x264 r2377 1ca7bb9
    Writing library : Haali Matroska Writer b0

    Video
    ID : 1
    Format : AVC
    Format/Info : Advanced Video Codec
    Format profile : High@L5.1
    Format settings, CABAC : Yes
    Format settings, ReFrames : 4 frames
    Codec ID : V_MPEG4/ISO/AVC
    Duration : 1mn 0s
    Bit rate : 2 015 Kbps
    Width : 3 200 pixels
    Height : 1 800 pixels
    Display aspect ratio : 16:9
    Frame rate mode : Constant
    Frame rate : 30.000 fps
    Color space : YUV
    Chroma subsampling : 4:2:0
    Bit depth : 8 bits
    Scan type : Progressive
    Bits/(Pixel*Frame) : 0.012
    Stream size : 14.5 MiB (98%)
    Writing library : x264 core 140 r2377 1ca7bb9
    Encoding settings : cabac=1 / ref=2 / deblock=1:0:0 / analyse=0x3:0x113 / me=hex / subme=6 / psy=1 / psy_rd=1.00:0.00 / mixed_ref=1 / me_range=16 / chroma_me=1 / trellis=1 / 8x8dct=1 / cqm=0 / deadzone=21,11 / fast_pskip=1 / chroma_qp_offset=-2 / threads=6 / lookahead_threads=1 / sliced_threads=0 / nr=0 / decimate=1 / interlaced=0 / bluray_compat=0 / constrained_intra=0 / bframes=3 / b_pyramid=2 / b_adapt=1 / b_bias=0 / direct=1 / weightb=1 / open_gop=0 / weightp=1 / keyint=300 / keyint_min=30 / scenecut=40 / intra_refresh=0 / rc_lookahead=30 / rc=crf / mbtree=1 / crf=18.0 / qcomp=0.60 / qpmin=0 / qpmax=69 / qpstep=4 / ip_ratio=1.40 / aq=1:1.00
    Language : English
    Default : Yes
    Forced : No


    Ich hoffe Ihr könnt mir weiter helfen :(
  • MediaInfo ist doch vorhanden :D
    Ich update gerade
    Nein gibt keinen Error aus :/
    //Edit
    Geupdatet.
    Hier der MKVMerge Output:
    Spoiler anzeigen
    mkvmerge v6.8.0 ('Theme for Great Cities') 64bit built on Mar 2 2014 21:34:26
    'C:\Users\LemonLary\Videos\Aufnahmen\giveaway\LolClient 2014-03-14 15-02-46-364.mkv': Using the demultiplexer for the format 'Matroska'.
    'C:\Users\LemonLary\Videos\Aufnahmen\giveaway\fertig2.ogg': Using the demultiplexer for the format 'Ogg/OGM'.
    'C:\Users\LemonLary\Videos\Aufnahmen\giveaway\LolClient 2014-03-14 15-02-46-364.mkv' track 0: Using the output module for the format 'AVC/h.264'.
    'C:\Users\LemonLary\Videos\Aufnahmen\giveaway\fertig2.ogg' track 0: Using the output module for the format 'Vorbis'.
    The file 'C:\Users\LemonLary\Videos\Aufnahmen\giveaway\LolClient 2014-03-14 15-02-46-364 (1).mkv' has been opened for writing.
    The cue entries (the index) are being written...
    Muxing took 0 seconds.

    MKVMerge finished with a return code of 0. Everything went fine.
    Sagt er noch :D
  • Waaas.
    Sehe ich gerade auch, im Player geöffnet hat es aber 1:45 und als ich aufgenommen habe ist die Tonspur auch 1:45 Lang geworden :|

    //Edit
    Habe es anders gefixt.
    Vorher habe ich zuerst das Video und dann die Tonspur in MKVMerge reingezogen, jetzt habe ich zuerst die Tonspur und dann das Video reingezogen und jetzt ist es 1:45 Minuten lang :D
    Hier die MediaInfo danach:
    Spoiler anzeigen
    General
    Unique ID : 179483312760616981847579859545900113045 (0x87073A8938F5CDBDBE2A38FC63FADC95)
    Complete name : C:\Users\LemonLary\Videos\Aufnahmen\giveaway\fertig2.mkv
    Format : Matroska
    Format version : Version 4 / Version 2
    File size : 20.8 MiB
    Duration : 1mn 44s
    Overall bit rate mode : Variable
    Overall bit rate : 1 662 Kbps
    Encoded date : UTC 2014-03-14 14:42:05
    Writing application : mkvmerge v6.8.0 ('Theme for Great Cities') 64bit built on Mar 2 2014 21:34:26
    Writing library : libebml v1.3.0 + libmatroska v1.4.1

    Video
    ID : 2
    Format : AVC
    Format/Info : Advanced Video Codec
    Format profile : High@L5.1
    Format settings, CABAC : Yes
    Format settings, ReFrames : 4 frames
    Codec ID : V_MPEG4/ISO/AVC
    Duration : 1mn 44s
    Bit rate : 1 129 Kbps
    Width : 3 200 pixels
    Height : 1 800 pixels
    Display aspect ratio : 16:9
    Frame rate mode : Constant
    Frame rate : 30.000 fps
    Color space : YUV
    Chroma subsampling : 4:2:0
    Bit depth : 8 bits
    Scan type : Progressive
    Bits/(Pixel*Frame) : 0.007
    Stream size : 14.1 MiB (68%)
    Writing library : x264 core 140 r2377 1ca7bb9
    Encoding settings : cabac=1 / ref=2 / deblock=1:0:0 / analyse=0x3:0x113 / me=hex / subme=6 / psy=1 / psy_rd=1.00:0.00 / mixed_ref=1 / me_range=16 / chroma_me=1 / trellis=1 / 8x8dct=1 / cqm=0 / deadzone=21,11 / fast_pskip=1 / chroma_qp_offset=-2 / threads=6 / lookahead_threads=1 / sliced_threads=0 / nr=0 / decimate=1 / interlaced=0 / bluray_compat=0 / constrained_intra=0 / bframes=3 / b_pyramid=2 / b_adapt=1 / b_bias=0 / direct=1 / weightb=1 / open_gop=0 / weightp=1 / keyint=300 / keyint_min=30 / scenecut=40 / intra_refresh=0 / rc_lookahead=30 / rc=crf / mbtree=1 / crf=18.0 / qcomp=0.60 / qpmin=0 / qpmax=69 / qpstep=4 / ip_ratio=1.40 / aq=1:1.00
    Language : English
    Default : Yes
    Forced : No

    Audio
    ID : 1
    Format : Vorbis
    Format settings, Floor : 1
    Codec ID : A_VORBIS
    Duration : 1mn 44s
    Bit rate mode : Variable
    Bit rate : 500 Kbps
    Channel count : 2 channels
    Sampling rate : 44.1 KHz
    Compression mode : Lossy
    Stream size : 6.25 MiB (30%)
    Writing library : aoTuV 20110424 (UTC 2011-04-24)
    Default : Yes
    Forced : No