Sony Vegas Platinum 12.0 kann .avi Datei nicht importieren

Diese Seite verwendet Cookies. Durch die Nutzung unserer Seite erklären Sie sich damit einverstanden, dass wir Cookies setzen. Weitere Informationen

  • Sony Vegas Platinum 12.0 kann .avi Datei nicht importieren

    Anzeige
    Hallo Liebes LPF.
    Ich habe gerade Aufnahmen meiner Klassenfahrt entdeckt und wollte diese nun gerne schneiden usw.
    Leider kann die Datei nicht importiert werden und die Fehlermeldung: "Keine der in Movie Studio Platinum abgelegten Dateien konnten geöffnet werden." taucht auf.

    Ich habe vorher noch nie mit den Dateien von dieser Kamera gearbeitet und auch die Suche im Internet hat nicht geholfen.
    Ich habe den passenden Codec nicht installiert bekommen, da nur die Konsole aufspringt und nichts weiteres passiert. (Zum (laut MediaInfo benötigten) Codec gehts hier: videolan.org/developers/x264.html)
    Die Antwort: "Installiere dir doch das Codec Pack X-Y." Kann man sich schenken, weil ich meinen Rechner nicht zubomben will ;) .

    Im Spoiler findet ihr die MediaInfo der betroffenen Dateien.
    Spoiler anzeigen
    Format : AVI
    Format/Info : Audio Video Interleave
    Dateigröße : 128 MiB
    Dauer : 1min 30s
    Modus der Gesamtbitrate : variabel
    Gesamte Bitrate : 11,9 Mbps
    Aufnahmedatum : 2012-09-17
    verwendete Encoder-Bibliothek : AMBA
    ICRT : 08:15:39

    Video
    ID : 0
    Format : AVC
    Format/Info : Advanced Video Codec
    Format-Profil : Main@L4.0
    Format-Einstellungen für CABAC : Ja
    Format-Einstellungen für ReFrames : 4 frames
    Format_Settings_GOP : M=1, N=8
    Codec-ID : H264
    Dauer : 1min 30s
    Bitraten-Modus : variabel
    Bitrate : 11,5 Mbps
    maximale Bitrate : 14,9 Mbps
    Breite : 1 920 Pixel
    Höhe : 1 080 Pixel
    Bildseitenverhältnis : 16:9
    Bildwiederholungsrate : 29,970 FPS
    ColorSpace : YUV
    ChromaSubsampling : 4:2:0
    BitDepth/String : 8 bits
    Scantyp : progressiv
    Bits/(Pixel*Frame) : 0.185
    Stream-Größe : 124 MiB (97%)

    Audio
    ID : 1
    Format : ADPCM
    Codec-ID : 11
    Codec-ID/Hinweis : Intel
    Dauer : 1min 30s
    Bitraten-Modus : konstant
    Bitrate : 384 Kbps
    Kanäle : 2 Kanäle
    Samplingrate : 48,0 KHz
    BitDepth/String : 4 bits
    Stream-Größe : 4,14 MiB (3%)
    Interleave, Dauer : 43 ms (1,28 Video-Frame)


    Viele Variable Sachen dabei, ich hatte jedoch damals noch weniger Ahnung als heute was Das angeht.
    Ich freue mich auf Antworten,
    Grüße Tobi!
  • Julien schrieb:

    Sehr weise, dass du dir kein Codec-Pack zulegen willst. ;)

    Gut, die Kamera hat also H.264 in AVI-Container gepackt, was eigentlich gar nicht so sein sollte. Vielleicht hilft es, wenn du per MP4 Box GUI die Videospuren in einen MP4-Container muxt, dann sollte Vegas das eigentlich lesen dürfen.


    Ich habe es versucht, doch das Programm macht keinen Anstand, nachdem ich den Mux Button betätige, außerdem werden die Audiodateien nicht in den supported files angezeigt.
    Wenn ich Audio und Video einen Speicherort zuweise und dann in die Warteschlage setze steht nachdem ich auf "Start" gedrückt habe zwar Complete dort, jedoch wurde nichts gemuxt (keine Ladezeit im Programm und keine Datei am Ende)
  • Anzeige
    Yamb gibt mir was (mehr oder weniger) schönes in der Log zurück.
    Spoiler anzeigen
    [00:34:00] : Yamb 2.1.0.0 beta 2 started !!!
    [00:34:00] : OS type detection...x64 (version 6.2, Build 9200 : )
    [00:34:00] : MP4Box found... C:\Program Files\Yamb\MP4Box.exe
    [00:34:00] : EAC3to found...c:\program files\yamb\eac3to\eac3to.exe
    [00:34:19] : IMAG0003.AVI loaded.
    [00:34:43] : Creation of Test.mp4...
    [00:34:43] : Command Line used for Creation : "C:\Program Files\Yamb\MP4Box.exe" -add "C:\Users\Tobias\Desktop\IMAG0003.AVI#video:fps=29.970" -add "C:\Users\Tobias\Desktop\IMAG0003.AVI#audio" -itags tool="Yamb 2.1.0.0 [yamb.unite-video.com]" "C:\Users\Tobias\Desktop\Test.mp4"
    [00:34:43] : File saved in C:\Users\Tobias\Desktop\
    [00:34:43] : Error importing C:\Users\Tobias\Desktop\IMAG0003.AVI#video:fps=29.970: Feature Not Supported
    [00:34:43] : Creation failed.
    [00:34:43] : Total Time Elapsed...


    Kann es sein, dass die FPS Schuld sind? :@
  • Mal mit ffmpeg versucht? (Nehm die Statisch verlinkte, die braucht keine externen DLLs)

    Quellcode

    1. ffmpeg.exe -i INPUTFILE.avi -vcodec copy -acodec copy OUTPUTFILE.mp4


    .
    .

    Weil h264 in AVI lässt sich nur mittels x264vfw in den "gängigen" Programmen lesen und letzteres ist unsupported und wird nicht mehr weiterentwickelt... (ich nutze es zwar trotzdem, aber empfehle es keinem)
    ——YouTube————————————————————————————————————————————
    — Endlos-Projekte: Minecraft (SinglePlayer), Craft The World, Banished, Besiege, Sims4
    — ..Abgeschlossen: Leisure Suit Larry 6+7, Dishonored, Surface 2+3, Mirrors Edge, uvm
    — . Kurz- Projekte: The Tower, Fighting Is Magic, Euro Truck Simulator 2, uvm
    — ......Retro-Ecke: Day Of The Tentacle, Flight Of The Amazon Queen, NFS: HP2, uvm
    ————————————————————————————————————————————TbMzockt.de—
  • TbMzockt schrieb:

    Mal mit ffmpeg versucht? (Nehm die Statisch verlinkte, die braucht keine externen DLLs)

    Quellcode

    1. ffmpeg.exe -i INPUTFILE.avi -vcodec copy -acodec copy OUTPUTFILE.mp4


    .
    .

    Weil h264 in AVI lässt sich nur mittels x264vfw in den "gängigen" Programmen lesen und letzteres ist unsupported und wird nicht mehr weiterentwickelt... (ich nutze es zwar trotzdem, aber empfehle es keinem)


    So, ich hoffe erstmal, dass ich das Ganze richtig gemacht habe.
    Ich habe mir das Programm runtergeladen und die Batch darin ausgeführt, dann habe ich das oben genannte eingetragen.
    Folgendes passierte:

    Spoiler anzeigen
    >ffmpeg.exe -i C:\Users\Tobias\Desktop\IMAG0003.avi -vcodec copy acodec copy C:\Users\Tobias\Desktop\Test.mp4
    ffmpeg version N-61481-g4d17179 Copyright (c) 2000-2014 the FFmpeg developers
    built on Mar 16 2014 02:45:42 with gcc 4.8.2 (GCC)
    configuration: --enable-gpl --enable-version3 --disable-w32threads --enable-avisynth --enable-bzlib --enable-fontconfig --enable-frei0r --enable-gnutls --enable-iconv --enable-libass --enable-libbluray --enable-libcaca --enable-libfreetype --enable-libgsm --enable-libilbc --enable-libmodplug --enable-libmp3lame --enable-libopencore-amrnb --enable-libopencore-amrwb --enable-libopenjpeg --enable-libopus --enable-librtmp --enable-libschroedinger --enable-libsoxr --enable-libspeex --enable-libtheora --enable-libtwolame --enable-libvidstab --enable-libvo-aacenc --enable-libvo-amrwbenc --enable-libvorbis --enable-libvpx --enable-libwavpack --enable-libx264 --enable-libx265 --enable-libxavs --enable-libxvid --enable-zlib
    libavutil 52. 66.101 / 52. 66.101
    libavcodec 55. 52.102 / 55. 52.102
    libavformat 55. 34.101 / 55. 34.101
    libavdevice 55. 11.100 / 55. 11.100
    libavfilter 4. 3.100 / 4. 3.100
    libswscale 2. 5.101 / 2. 5.101
    libswresample 0. 18.100 / 0. 18.100
    libpostproc 52. 3.100 / 52. 3.100
    Guessed Channel Layout for Input Stream #0.1 : stereo
    Input #0, avi, from 'C:\Users\Tobias\Desktop\IMAG0003.avi':
    Metadata:
    date : 2012-09-17
    ICRT : 08:15:39
    Duration: 00:01:30.19, start: 0.000000, bitrate: 11894 kb/s
    Stream #0:0: Video: h264 (Main) (H264 / 0x34363248), yuv420p, 1920x1080 [SAR 1:1 DAR 16:9], 11504 kb/s, 29.97 fps, 29.97 tbr, 29.97 tbn, 59.94 tbc
    Stream #0:1: Audio: adpcm_ima_wav ([17][0][0][0] / 0x0011), 48000 Hz, stereo, s16p, 384 kb/s
    [NULL @ 00000000029be940] Unable to find a suitable output format for 'acodec'
    acodec: Invalid argument


    Habe ich jetzt was falsch gemacht oder liegt es weiterhin an den Dateien? (http://ffmpeg.zeranoe.com/builds\ Ich habe folgendes runtergeladen: FFmpeg git-4d17179 64-bit Static)
  • Er mag deinen Audiocodec nicht.
    Aktuelle Projekte/Videos




    Seit etlichen Monaten komplett veraltete Signatur, wie ihr sicherlich schon bemerkt habt. Habe mittlerweile mehr als 4 Projekte, weshalb die Signatur leider momentan gesprengt ist xD
    Notdürftig die Liste was aktuell läuft: Unreal | Complex DooM (LPT) | DooM 2016 | Need For Speed III: Hot Pursuit | Dirt Rally | Dirt 4 | WRC 7
  • De-M-oN schrieb:

    Er mag deinen Audiocodec nicht.


    Sagaras schrieb:

    ADPCM am besten in reines PCM encoden lassen. Dann sollte das klappen, indem man beide Sachen trennt.

    Aus dem Video lädste nur Stream 0, sprich Videospur und Spur 1 wählste ab. Das wäre die Audiospur und dann holste dir die behandelte externe Audiospur rein und muxt es zusammen.


    Yamb unterstützt leider kein PCM. Ich habe den Audiostream deshalb Testweise in MP3 umgewandelt.
    Der Fehler bleibt leider weiterhin bestehen ;( .

    Spoiler anzeigen
    ​[18:18:23] : Yamb 2.1.0.0 beta 2 started !!!
    [18:18:23] : OS type detection...x64 (version 6.2, Build 9200 : )
    [18:18:23] : MP4Box found... C:\Program Files\Yamb\MP4Box.exe
    [18:18:23] : EAC3to found...c:\program files\yamb\eac3to\eac3to.exe
    [18:23:59] : IMAG0003.AVI loaded.
    [18:24:05] : IMAG0003.mp3 loaded.
    [18:24:09] : Creation of IMAG0003.mp4...
    [18:24:09] : Command Line used for Creation : "C:\Program Files\Yamb\MP4Box.exe" -add "C:\Users\Tobias\Desktop\IMAG0003.AVI#video:fps=29.970" -add "C:\Users\Tobias\Desktop\IMAG0003.mp3" -itags tool="Yamb 2.1.0.0 [yamb.unite-video.com]" "C:\Users\Tobias\Desktop\IMAG0003.mp4"
    [18:24:09] : File saved in C:\Users\Tobias\Desktop\
    [18:24:10] : Error importing C:\Users\Tobias\Desktop\IMAG0003.AVI#video:fps=29.970: Feature Not Supported
    [18:24:10] : Creation failed.
    [18:24:10] : Total Time Elapsed...
    [18:24:15] : Yamb 2.1.0.0 beta 2 closed.
  • Der meckert ja auch nich wegen deinem Audio, sondern wegen deiner 29,97fps.

    MyMP4Box ist aber eh die bessere MP4Box GUI.

    Aber warum willst du denn unbedingt auch audio in die mp4 bringen. Reicht doch wenn das Video drin ist.

    Und das kannste ja mit myMP4Box GUI machen.

    Audio kannste doch roh ins Vegas laden..
    Aktuelle Projekte/Videos




    Seit etlichen Monaten komplett veraltete Signatur, wie ihr sicherlich schon bemerkt habt. Habe mittlerweile mehr als 4 Projekte, weshalb die Signatur leider momentan gesprengt ist xD
    Notdürftig die Liste was aktuell läuft: Unreal | Complex DooM (LPT) | DooM 2016 | Need For Speed III: Hot Pursuit | Dirt Rally | Dirt 4 | WRC 7
  • De-M-oN schrieb:

    Der meckert ja auch nich wegen deinem Audio, sondern wegen deiner 29,97fps.

    MyMP4Box ist aber eh die bessere MP4Box GUI.

    Aber warum willst du denn unbedingt auch audio in die mp4 bringen. Reicht doch wenn das Video drin ist.

    Und das kannste ja mit myMP4Box GUI machen.

    Audio kannste doch roh ins Vegas laden..


    My MP4 Box will aber nichts machen, wenn ich ihm die Datei gebe, einen Speicherort festlege und dann auf "Mux" klicke. Es passiert einfach nichts, sonst wäre das Problem ja behoben :D .
  • LPTobey schrieb:

    My MP4 Box will aber nichts machen, wenn ich ihm die Datei gebe, einen Speicherort festlege und dann auf "Mux" klicke. Es passiert einfach nichts, sonst wäre das Problem ja behoben .


    Bist du sicher das keine Datei erstellt wird, nachdem du eine Weile gewartet hast?

    Der Arbeitsstatus steht am unteren Ende des Programms wo ready... steht. Manchmal funktioniert die arbeitszeile nicht und bleibt auf ready, obwohl er arbeitet.
    Aktuelle Projekte/Videos




    Seit etlichen Monaten komplett veraltete Signatur, wie ihr sicherlich schon bemerkt habt. Habe mittlerweile mehr als 4 Projekte, weshalb die Signatur leider momentan gesprengt ist xD
    Notdürftig die Liste was aktuell läuft: Unreal | Complex DooM (LPT) | DooM 2016 | Need For Speed III: Hot Pursuit | Dirt Rally | Dirt 4 | WRC 7
  • LPTobey schrieb:

    Habe ich jetzt was falsch gemacht

    Du hast den Bindestrich bei "-acodec" vergessen...

    .
    .

    De-M-oN schrieb:

    Er mag deinen Audiocodec nicht.

    Laut dem Log hat ffmpeg alle Streams korrekt erkannt, ist nur ein Flüchtigkeitsfehler, es fehlt einfach der Bindestrich vor "-acodec"... ffmpeg ist im Kopier-Modus egal welches Audio und Video du nutzt... :P
    ——YouTube————————————————————————————————————————————
    — Endlos-Projekte: Minecraft (SinglePlayer), Craft The World, Banished, Besiege, Sims4
    — ..Abgeschlossen: Leisure Suit Larry 6+7, Dishonored, Surface 2+3, Mirrors Edge, uvm
    — . Kurz- Projekte: The Tower, Fighting Is Magic, Euro Truck Simulator 2, uvm
    — ......Retro-Ecke: Day Of The Tentacle, Flight Of The Amazon Queen, NFS: HP2, uvm
    ————————————————————————————————————————————TbMzockt.de—
  • TbMzockt schrieb:

    LPTobey schrieb:

    Habe ich jetzt was falsch gemacht

    Du hast den Bindestrich bei "-acodec" vergessen...

    .
    .

    De-M-oN schrieb:

    Er mag deinen Audiocodec nicht.

    Laut dem Log hat ffmpeg alle Streams korrekt erkannt, ist nur ein Flüchtigkeitsfehler, es fehlt einfach der Bindestrich vor "-acodec"... ffmpeg ist im Kopier-Modus egal welches Audio und Video du nutzt... :P


    Ups, meine eigene Dummheit sorry, aber auch nach dem richtigen eintragen passiert nur folgendes:

    Spoiler anzeigen

    Quellcode

    1. >ffmpeg.exe -i C:\Users\Tobias\Desktop\IMAG0003.avi -vcodec copy -acodec copy C:\Users\Tobias\Desktop\Test_1.mp4
    2. ffmpeg version N-61481-g4d17179 Copyright (c) 2000-2014 the FFmpeg developers
    3. built on Mar 16 2014 02:45:42 with gcc 4.8.2 (GCC)
    4. configuration: --enable-gpl --enable-version3 --disable-w32threads --enable-avisynth --enable-bzlib --enable-fontconfig --enable-frei0r --enable-gnutls --enable-iconv --enable-libass --enable-libbluray --enable-libcaca --enable-libfreetype --enable-libgsm --enable-libilbc --enable-libmodplug --enable-libmp3lame --enable-libopencore-amrnb --enable-libopencore-amrwb --enable-libopenjpeg --enable-libopus --enable-librtmp --enable-libschroedinger --enable-libsoxr --enable-libspeex --enable-libtheora --enable-libtwolame --enable-libvidstab --enable-libvo-aacenc --enable-libvo-amrwbenc --enable-libvorbis --enable-libvpx --enable-libwavpack --enable-libx264 --enable-libx265 --enable-libxavs --enable-libxvid --enable-zlib
    5. libavutil 52. 66.101 / 52. 66.101
    6. libavcodec 55. 52.102 / 55. 52.102
    7. libavformat 55. 34.101 / 55. 34.101
    8. libavdevice 55. 11.100 / 55. 11.100
    9. libavfilter 4. 3.100 / 4. 3.100
    10. libswscale 2. 5.101 / 2. 5.101
    11. libswresample 0. 18.100 / 0. 18.100
    12. libpostproc 52. 3.100 / 52. 3.100
    13. Guessed Channel Layout for Input Stream #0.1 : stereo
    14. Input #0, avi, from 'C:\Users\Tobias\Desktop\IMAG0003.avi':
    15. Metadata:
    16. date : 2012-09-17
    17. ICRT : 08:15:39
    18. Duration: 00:01:30.19, start: 0.000000, bitrate: 11894 kb/s
    19. Stream #0:0: Video: h264 (Main) (H264 / 0x34363248), yuv420p, 1920x1080 [SAR 1:1 DAR 16:9], 11504 kb/s, 29.97 fps, 29.97 tbr, 29.97 tbn, 59.94 tbc
    20. Stream #0:1: Audio: adpcm_ima_wav ([17][0][0][0] / 0x0011), 48000 Hz, stereo, s16p, 384 kb/s
    21. [mp4 @ 000000000432f2e0] Could not find tag for codec adpcm_ima_wav in stream #1, codec not currently supported in container
    22. Output #0, mp4, to 'C:\Users\Tobias\Desktop\Test_1.mp4':
    23. Metadata:
    24. date : 2012-09-17
    25. ICRT : 08:15:39
    26. encoder : Lavf55.34.101
    27. Stream #0:0: Video: h264 ([33][0][0][0] / 0x0021), yuv420p, 1920x1080 [SAR 1:1 DAR 16:9], q=2-31, 11504 kb/s, 29.97 fps, 30k tbn, 29.97 tbc
    28. Stream #0:1: Audio: adpcm_ima_wav ([17][0][0][0] / 0x0011), 48000 Hz, stereo, 384 kb/s
    29. Stream mapping:
    30. Stream #0:0 -> #0:0 (copy)
    31. Stream #0:1 -> #0:1 (copy)
    32. Could not write header for output file #0 (incorrect codec parameters ?): Error number -22 occurred
    Alles anzeigen


    @De-M-oN My MP4 Box rührt sich nicht, standart Sachen, wie als Admin ausführen etc. bin ich schon durchgegangen.
  • LPTobey schrieb:

    [mp4 @ 000000000432f2e0] Could not find tag for codec adpcm_ima_wav in stream #1, codec not currently supported in container

    Im MP4-Container ist dieser Audio-Codec nicht erlaubt bzw. wird nicht unterstützt... dann muss der halt konvertiert werden, zB. nach AAC was im MP4-Container ja erlaubt ist.


    Quellcode

    1. ffmpeg.exe -i INPUTFILE.avi -vcodec copy -strict experimental -c:a aac -b:a 240k OUTPUTFILE.mp4

    Sollte funktionieren (nimmt den internen AAC-Codec), habs jetzt aber nicht selber ausprobiert, ist aus der Hilfe des Programms...
    ——YouTube————————————————————————————————————————————
    — Endlos-Projekte: Minecraft (SinglePlayer), Craft The World, Banished, Besiege, Sims4
    — ..Abgeschlossen: Leisure Suit Larry 6+7, Dishonored, Surface 2+3, Mirrors Edge, uvm
    — . Kurz- Projekte: The Tower, Fighting Is Magic, Euro Truck Simulator 2, uvm
    — ......Retro-Ecke: Day Of The Tentacle, Flight Of The Amazon Queen, NFS: HP2, uvm
    ————————————————————————————————————————————TbMzockt.de—
  • TbMzockt schrieb:

    LPTobey schrieb:

    [mp4 @ 000000000432f2e0] Could not find tag for codec adpcm_ima_wav in stream #1, codec not currently supported in container

    Im MP4-Container ist dieser Audio-Codec nicht erlaubt bzw. wird nicht unterstützt... dann muss der halt konvertiert werden, zB. nach AAC was im MP4-Container ja erlaubt ist.


    Quellcode

    1. ffmpeg.exe -i INPUTFILE.avi -vcodec copy -strict experimental -c:a aac -b:a 240k OUTPUTFILE.mp4

    Sollte funktionieren (nimmt den internen AAC-Codec), habs jetzt aber nicht selber ausprobiert, ist aus der Hilfe des Programms...


    Boah, ich danke euch allen für eure Mithilfe!
    Das Problem ist gelöst, mit dieser Methode!

    Vielen lieben Dank, ihr wart eine riesige Hilfe für mich als Video-Noob ^^ .