"Komische" Asynchronität

Diese Seite verwendet Cookies. Durch die Nutzung unserer Seite erklären Sie sich damit einverstanden, dass wir Cookies setzen. Weitere Informationen

  • "Komische" Asynchronität

    Anzeige
    Hallo. :D

    Derzeit habe ich das Problem, das meine Videos immer öfters asynchron werden.

    Mein Workflow ist: Dxtory --> Megui --> MkvMergeGUI Splitting

    Nach dem Splitting ist das Video anfangs völlig synchron, nach ca. 20 Minuten schon um etwa 2 Minuten asynchron. (!)

    MediaInfos der Dateien:

    DxTory Lagarith Datei:

    General
    Complete name : R:\hl2 2014-08-17 15-06-00-506.avi
    Format : AVI
    Format/Info : Audio Video Interleave
    Format profile : OpenDML
    File size : 94.4 GiB
    Duration : 1h 28mn
    Overall bit rate : 153 Mbps
    Original source form/Distributed by : Video:Lagarith Lossless Codec Audio0:Lautsprecher (Plantronics GameCom 780) Audio1:Mikrofon (4- SC450USB )
    Writing application : DxtoryCore ver2.0.0.125

    Video
    ID : 0
    Format : Lagarith
    Codec ID : LAGS
    Duration : 1h 28mn
    Bit rate : 150 Mbps
    Width : 1 920 pixels
    Height : 1 080 pixels
    Display aspect ratio : 16:9
    Frame rate : 30.000 fps
    Color space : YUV
    Chroma subsampling : 4:2:0
    Bit depth : 8 bits
    Bits/(Pixel*Frame) : 2.404
    Stream size : 92.5 GiB (98%)

    Audio #1
    ID : 1
    Format : PCM
    Format settings, Endianness : Little
    Format settings, Sign : Signed
    Codec ID : 1
    Duration : 1h 28mn
    Bit rate mode : Constant
    Bit rate : 1 536 Kbps
    Channel count : 2 channels
    Sampling rate : 48.0 KHz
    Bit depth : 16 bits
    Stream size : 973 MiB (1%)
    Alignment : Aligned on interleaves
    Interleave, duration : 100 ms (3.00 video frames)

    Audio #2
    ID : 2
    Format : PCM
    Format settings, Endianness : Little
    Format settings, Sign : Signed
    Codec ID : 1
    Duration : 1h 28mn
    Bit rate mode : Constant
    Bit rate : 1 536 Kbps
    Channel count : 2 channels
    Sampling rate : 48.0 KHz
    Bit depth : 16 bits
    Stream size : 973 MiB (1%)
    Alignment : Aligned on interleaves
    Interleave, duration : 100 ms (3.00 video frames)


    Encodierte Datei ohne Audio:

    General
    Complete name : F:\Let's Plays\Team Fortress 2\Video\TF6.mkv
    Format : Matroska
    Format version : Version 2
    File size : 7.43 GiB
    Duration : 1h 28mn
    Overall bit rate : 12.0 Mbps
    Writing application : x264 r2358 9e941d1
    Writing library : Haali Matroska Writer b0

    Video
    ID : 1
    Format : AVC
    Format/Info : Advanced Video Codec
    Format profile : High@L5.0
    Format settings, CABAC : Yes
    Format settings, ReFrames : 4 frames
    Codec ID : V_MPEG4/ISO/AVC
    Duration : 1h 28mn
    Bit rate : 11.8 Mbps
    Width : 2 560 pixels
    Height : 1 440 pixels
    Display aspect ratio : 16:9
    Frame rate mode : Constant
    Frame rate : 30.000 fps
    Color space : YUV
    Chroma subsampling : 4:2:0
    Bit depth : 8 bits
    Scan type : Progressive
    Bits/(Pixel*Frame) : 0.106
    Stream size : 7.28 GiB (98%)
    Writing library : x264 core 138 r2358 9e941d1
    Encoding settings : cabac=1 / ref=3 / deblock=1:-1:-1 / analyse=0x3:0x113 / me=hex / subme=7 / psy=1 / psy_rd=1.00:0.15 / mixed_ref=1 / me_range=16 / chroma_me=1 / trellis=1 / 8x8dct=1 / cqm=0 / deadzone=21,11 / fast_pskip=1 / chroma_qp_offset=-3 / threads=9 / lookahead_threads=1 / sliced_threads=0 / nr=0 / decimate=1 / interlaced=0 / bluray_compat=0 / constrained_intra=0 / bframes=3 / b_pyramid=2 / b_adapt=1 / b_bias=0 / direct=1 / weightb=1 / open_gop=0 / weightp=2 / keyint=300 / keyint_min=30 / scenecut=40 / intra_refresh=0 / rc_lookahead=40 / rc=crf / mbtree=1 / crf=19.0 / qcomp=0.60 / qpmin=0 / qpmax=69 / qpstep=4 / ip_ratio=1.40 / aq=1:1.00
    Language : English
    Default : Yes
    Forced : No


    Muxed Datei (1 Part davon):

    General
    Unique ID : 225712457721890527088615273438063413188 (0xA9CEA35B7D8AC486851BC1BCD340C7C4)
    Complete name : F:\Let's Plays\Team Fortress 2\Muxed\TF Stream 6\TF6-001.mkv
    Format : Matroska
    Format version : Version 4 / Version 2
    File size : 1.19 GiB
    Duration : 14mn 55s
    Overall bit rate mode : Variable
    Overall bit rate : 11.5 Mbps
    Encoded date : UTC 2014-08-21 17:44:16
    Writing application : mkvmerge v7.0.0 ('Where We Going') 64bit built on Jun 9 2014 15:16:27
    Writing library : libebml v1.3.0 + libmatroska v1.4.1
    DURATION : 00:14:55.573000000
    NUMBER_OF_FRAMES : 10495
    NUMBER_OF_BYTES : 71957151
    _STATISTICS_WRITING_APP : mkvmerge v7.0.0 ('Where We Going') 64bit built on Jun 9 2014 15:16:27
    _STATISTICS_WRITING_DATE_UTC : 2014-08-21 17:44:16
    _STATISTICS_TAGS : BPS DURATION NUMBER_OF_FRAMES NUMBER_OF_BYTES

    Video
    ID : 2
    Format : AVC
    Format/Info : Advanced Video Codec
    Format profile : High@L5.0
    Format settings, CABAC : Yes
    Format settings, ReFrames : 4 frames
    Codec ID : V_MPEG4/ISO/AVC
    Duration : 14mn 55s
    Width : 2 560 pixels
    Height : 1 440 pixels
    Display aspect ratio : 16:9
    Frame rate mode : Constant
    Frame rate : 30.000 fps
    Color space : YUV
    Chroma subsampling : 4:2:0
    Bit depth : 8 bits
    Scan type : Progressive
    Writing library : x264 core 138 r2358 9e941d1
    Encoding settings : cabac=1 / ref=3 / deblock=1:-1:-1 / analyse=0x3:0x113 / me=hex / subme=7 / psy=1 / psy_rd=1.00:0.15 / mixed_ref=1 / me_range=16 / chroma_me=1 / trellis=1 / 8x8dct=1 / cqm=0 / deadzone=21,11 / fast_pskip=1 / chroma_qp_offset=-3 / threads=9 / lookahead_threads=1 / sliced_threads=0 / nr=0 / decimate=1 / interlaced=0 / bluray_compat=0 / constrained_intra=0 / bframes=3 / b_pyramid=2 / b_adapt=1 / b_bias=0 / direct=1 / weightb=1 / open_gop=0 / weightp=2 / keyint=300 / keyint_min=30 / scenecut=40 / intra_refresh=0 / rc_lookahead=40 / rc=crf / mbtree=1 / crf=19.0 / qcomp=0.60 / qpmin=0 / qpmax=69 / qpstep=4 / ip_ratio=1.40 / aq=1:1.00
    Language : English
    Default : Yes
    Forced : No

    Audio
    ID : 1
    Format : FLAC
    Format/Info : Free Lossless Audio Codec
    Codec ID : A_FLAC
    Duration : 14mn 55s
    Bit rate mode : Variable
    Channel count : 2 channels
    Sampling rate : 48.0 KHz
    Bit depth : 16 bits
    Writing library : libFLAC 1.2.1 (UTC 2007-09-17)
    Default : Yes
    Forced : No
    DURATION : 00:14:55.533000000
    NUMBER_OF_FRAMES : 26866
    NUMBER_OF_BYTES : 1210354558
    _STATISTICS_WRITING_APP : mkvmerge v7.0.0 ('Where We Going') 64bit built on Jun 9 2014 15:16:27
    _STATISTICS_WRITING_DATE_UTC : 2014-08-21 17:44:16
    _STATISTICS_TAGS : BPS DURATION NUMBER_OF_FRAMES NUMBER_OF_BYTES


    Könnt ihr mir helfen?

    Grüße
    Benni
  • Reicht das? :D

    General
    Complete name : F:\Let's Plays\Team Fortress 2\Audio\TF6.flac
    Format : FLAC
    Format/Info : Free Lossless Audio Codec
    File size : 419 MiB
    Duration : 1h 28mn
    Overall bit rate mode : Variable
    Overall bit rate : 661 Kbps

    Audio
    Format : FLAC
    Format/Info : Free Lossless Audio Codec
    Duration : 1h 28mn
    Bit rate mode : Variable
    Bit rate : 661 Kbps
    Channel count : 2 channels
    Sampling rate : 48.0 KHz
    Bit depth : 16 bits
    Stream size : 419 MiB (100%)
    Writing library : libFLAC 1.2.1 (UTC 2007-09-17)
  • Ok. Dann stellt sich mir nun die Frage wie du nun auf 1h und 28min kommst hiermit und das Quellvideo ebenfalls so lang ist, wo sich da 2 Minuten Verzögerung zeigen sollen?

    Entweder haste Audio kurz irgendwo auf 44100Hz gehabt in Audacity oder du hast das Video in FPS irgendwo weiter limieiert und es dann wieder auf 30 FPS geändert.

    Das sind die einzigen Möglichkeiten die wir aus den Mediainfos nicht ersehen. Daher sagte ich auch das du uns den richtig kompletten Ablauf deiner Arbeit verrätst. Sonst raten wir auch nur mit ner Glaskugel rum wo was falsch sein könnte ^^

    Hast du denn das Quellvideo mal so abgespielt und überprüft auf Asynchronität?

    Weil wie gesagt: Laut der Zeit die da steht ist encodiertes Audio genauso lang wie Quellvideolänge. Ersehe da nix ersichtliches was Asynchronität hervorufen würde.

    Daher: Quellvideo überprüfen.
  • Ist das Rohmaterial denn synchron? Hier produziert dxtory hin und wieder merkwürdige asynchronitäten beim ganz normalen Aufnehmen... passiert weder mit Fraps noch Afterburner oder ShadowPlay...
    ——YouTube————————————————————————————————————————————
    — Endlos-Projekte: Minecraft (SinglePlayer), Craft The World, Banished, Besiege, Sims4
    — ..Abgeschlossen: Leisure Suit Larry 6+7, Dishonored, Surface 2+3, Mirrors Edge, uvm
    — . Kurz- Projekte: The Tower, Fighting Is Magic, Euro Truck Simulator 2, uvm
    — ......Retro-Ecke: Day Of The Tentacle, Flight Of The Amazon Queen, NFS: HP2, uvm
    ————————————————————————————————————————————TbMzockt.de—
  • Gibt da so ein Tool "Audio Timer Monitor", runterladen, ein paar Stunden laufen lassen und dann mal das Ergebnis hier posten, dann kann man dir sagen um wie viel das ganze abweicht...
    ——YouTube————————————————————————————————————————————
    — Endlos-Projekte: Minecraft (SinglePlayer), Craft The World, Banished, Besiege, Sims4
    — ..Abgeschlossen: Leisure Suit Larry 6+7, Dishonored, Surface 2+3, Mirrors Edge, uvm
    — . Kurz- Projekte: The Tower, Fighting Is Magic, Euro Truck Simulator 2, uvm
    — ......Retro-Ecke: Day Of The Tentacle, Flight Of The Amazon Queen, NFS: HP2, uvm
    ————————————————————————————————————————————TbMzockt.de—