Magix Movie Deluxe 2015 Exportierungsproblem

Diese Seite verwendet Cookies. Durch die Nutzung unserer Seite erklären Sie sich damit einverstanden, dass wir Cookies setzen. Weitere Informationen

  • Magix Movie Deluxe 2015 Exportierungsproblem

    Anzeige
    Hi Leutz,

    bin günstig eine eine Kopie von Magix Movie Deluxe 2015 gekommen und habe jetzt mit Facecam Aufnahmen experimentiert.

    Nun habe ich folgendes Problem:
    3 Spuren - 1. Spielevideo ohne Tonspur
    2. Facecam Aufnahme ohne Tonspur
    3. Gemuxtes Audio von Stimme und Spielsound gesynct mit beiden Videos

    Wenn ich nun das Projekt exportiere, kommt dabei ein schwarzer Bildschirm mit Facecam Aufnahme in der oberen Ecke heraus. Sound stimmt auch, aber das Hauptvideo über das die Facecam Aufnahem gelegt ist, bleibt die gesamte Zeit komplett schwarz.
    Habe schon einige Formate zum exportieren benutzt, aber immer mit dem selben Ergebnis.
    Hat jemand eine Idee voran es liegen könnte?

    Beste Grüße, Sup3rH0nk
  • @Sagaras Hallo an den "Script-Zauberer" ;)

    Metadaten Webcam Aufname

    General
    Complete name : Video 3.wmv
    Format : Windows Media
    File size : 16.1 MiB
    Duration : 34s 761ms
    Overall bit rate mode : Variable
    Overall bit rate : 3 879 Kbps
    Maximum Overall bit rate : 5 191 Kbps
    Encoded date : UTC 2014-10-01 23:16:01.462

    Video
    ID : 2
    Format : WMV2
    Codec ID : WMV2
    Codec ID/Info : Windows Media Video 8
    Description of the codec : Windows Media Video V8
    Duration : 34s 733ms
    Bit rate mode : Variable
    Bit rate : 2 679 Kbps
    Width : 640 pixels
    Height : 480 pixels
    Display aspect ratio : 4:3
    Frame rate : 15.000 fps
    Bit depth : 8 bits
    Bits/(Pixel*Frame) : 0.581
    Stream size : 11.1 MiB (69%)
    Language : German

    Audio
    ID : 1
    Format : WMA
    Format version : Version 2
    Codec ID : 161
    Codec ID/Info : Windows Media Audio
    Description of the codec : Windows Media Audio 9.2 - 191 kbps, 48 kHz, stereo Low Delay 1-pass CBR
    Duration : 34s 761ms
    Bit rate mode : Constant
    Bit rate : 1 411 Kbps
    Channel(s) : 2 channels
    Sampling rate : 48.0 KHz
    Bit depth : 16 bits
    Stream size : 5.85 MiB (36%)
    Language : German

    Metadaten Spiele-Aufnahme Dxtory

    General
    Complete name : Paradigm 2014-10-02 01-16-11-205.avi
    Format : AVI
    Format/Info : Audio Video Interleave
    File size : 105 MiB
    Duration : 20s 300ms
    Overall bit rate : 43.3 Mbps
    Original source form/Distributed by : Video:Lagarith Lossless Codec Audio0:Lautsprecher (4- Samson Meteor Mic) Audio1:Mikrofon (4- Samson Meteor Mic)
    Writing application : DxtoryCore ver2.0.0.128

    Video
    ID : 0
    Format : Lagarith
    Codec ID : LAGS
    Duration : 20s 300ms
    Bit rate : 40.2 Mbps
    Width : 1 920 pixels
    Height : 1 080 pixels
    Display aspect ratio : 16:9
    Frame rate : 30.000 fps
    Color space : YUV
    Chroma subsampling : 4:2:0
    Bit depth : 8 bits
    Bits/(Pixel*Frame) : 0.647
    Stream size : 97.3 MiB (93%)

    Audio #1
    ID : 1
    Format : PCM
    Format settings, Endianness : Little
    Format settings, Sign : Signed
    Codec ID : 1
    Duration : 20s 300ms
    Bit rate mode : Constant
    Bit rate : 1 536 Kbps
    Channel(s) : 2 channels
    Sampling rate : 48.0 KHz
    Bit depth : 16 bits
    Stream size : 3.72 MiB (4%)
    Alignment : Aligned on interleaves
    Interleave, duration : 100 ms (3.00 video frames)

    Audio #2
    ID : 2
    Format : PCM
    Format settings, Endianness : Little
    Format settings, Sign : Signed
    Codec ID : 1
    Duration : 20s 300ms
    Bit rate mode : Constant
    Bit rate : 1 536 Kbps
    Channel(s) : 2 channels
    Sampling rate : 48.0 KHz
    Bit depth : 16 bits
    Stream size : 3.72 MiB (4%)
    Alignment : Aligned on interleaves
    Interleave, duration : 100 ms (3.00 video frames)

    ...und hier noch das Projekt in Magix

    imagizer.imageshack.us/v2/1375x711q90/745/JTcafr.png

    Dieser Beitrag wurde bereits 1 mal editiert, zuletzt von Sup3rH0nk ()

  • Die Webcam würde ich auch mit Lagarith aufnehmen statt wmv müll ;D
    Aktuelle Projekte/Videos




    Seit etlichen Monaten komplett veraltete Signatur, wie ihr sicherlich schon bemerkt habt. Habe mittlerweile mehr als 4 Projekte, weshalb die Signatur leider momentan gesprengt ist xD
    Notdürftig die Liste was aktuell läuft: Unreal | Complex DooM (LPT) | DooM 2016 | Need For Speed III: Hot Pursuit | Dirt Rally | Dirt 4 | WRC 7
  • MagicYUV - Ein neuer Lossless Codec!

    performanter + wird garantiert laufen.

    webcam aufnahme geht mit virtualdub - genauere Hilfe @Sagaras erkundigen.
    Aktuelle Projekte/Videos




    Seit etlichen Monaten komplett veraltete Signatur, wie ihr sicherlich schon bemerkt habt. Habe mittlerweile mehr als 4 Projekte, weshalb die Signatur leider momentan gesprengt ist xD
    Notdürftig die Liste was aktuell läuft: Unreal | Complex DooM (LPT) | DooM 2016 | Need For Speed III: Hot Pursuit | Dirt Rally | Dirt 4 | WRC 7