4K 60FPS Encodiert, aber nur 1080P 60FPS & 720P 60FPS YouTube

Diese Seite verwendet Cookies. Durch die Nutzung unserer Seite erklären Sie sich damit einverstanden, dass wir Cookies setzen. Weitere Informationen

  • 4K 60FPS Encodiert, aber nur 1080P 60FPS & 720P 60FPS YouTube

    Anzeige
    Hi,
    Ich habe gestern einen komischen Bug entdeckt in Battlefield und es aufgenommen, alles in 60FPS 1080P.
    Hab dann in MeGUI auf 4K hochskalliert(1800P um genau zu sein) und es encodiert.
    Auf YouTube habe ich jedoch nur 720P 60 FPS und 1080P 60FPS was ein wenig komisch ist.
    Mediainfo der Datei nach dem Muxen und Encodieren:
    Spoiler anzeigen
    General
    Unique ID : 238486160779955695684617947131651187561 (0xB36AC38ACF1798BFA7E46BE89E9A6369)
    Complete name : F:\Aufnahme\bf4 2015-01-09 20-06-25-64 (1).mkv
    Format : Matroska
    Format version : Version 4 / Version 2
    File size : 129 MiB
    Duration : 22s 567ms
    Overall bit rate : 47.8 Mbps
    Encoded date : UTC 2015-01-11 11:08:08
    Writing application : mkvmerge v7.5.0 ('Glass Culture') 64bit built on Jan 4 2015 16:48:44
    Writing library : libebml v1.3.1 + libmatroska v1.4.2
    DURATION : 00:00:22.567000000
    NUMBER_OF_FRAMES : 113
    NUMBER_OF_BYTES : 3980760
    _STATISTICS_WRITING_APP : mkvmerge v7.5.0 ('Glass Culture') 64bit built on Jan 4 2015 16:48:44
    _STATISTICS_WRITING_DATE_UTC : 2015-01-11 11:08:08
    _STATISTICS_TAGS : BPS DURATION NUMBER_OF_FRAMES NUMBER_OF_BYTES

    Video
    ID : 2
    Format : AVC
    Format/Info : Advanced Video Codec
    Format profile : High@L5.2
    Format settings, CABAC : Yes
    Format settings, ReFrames : 4 frames
    Codec ID : V_MPEG4/ISO/AVC
    Duration : 22s 567ms
    Width : 3 200 pixels
    Height : 1 800 pixels
    Display aspect ratio : 16:9
    Frame rate mode : Constant
    Frame rate : 60.000 fps
    Color space : YUV
    Chroma subsampling : 4:2:0
    Bit depth : 8 bits
    Scan type : Progressive
    Writing library : x264 core 144 r2525 40bb568
    Encoding settings : cabac=1 / ref=2 / deblock=1:0:0 / analyse=0x3:0x113 / me=hex / subme=6 / psy=1 / psy_rd=1.00:0.00 / mixed_ref=1 / me_range=16 / chroma_me=1 / trellis=1 / 8x8dct=1 / cqm=0 / deadzone=21,11 / fast_pskip=1 / chroma_qp_offset=-2 / threads=6 / lookahead_threads=1 / sliced_threads=0 / nr=0 / decimate=1 / interlaced=0 / bluray_compat=0 / constrained_intra=0 / bframes=3 / b_pyramid=2 / b_adapt=1 / b_bias=0 / direct=1 / weightb=1 / open_gop=0 / weightp=1 / keyint=600 / keyint_min=60 / scenecut=40 / intra_refresh=0 / rc_lookahead=30 / rc=crf / mbtree=1 / crf=16.0 / qcomp=0.60 / qpmin=0 / qpmax=69 / qpstep=4 / ip_ratio=1.40 / aq=1:1.00
    Language : English
    Default : Yes
    Forced : No

    Audio
    ID : 1
    Format : PCM
    Codec ID : A_PCM/INT/LIT
    Duration : 22s 567ms
    Bit rate mode : Constant
    Channel count : 2 channels
    Sampling rate : 44.1 KHz
    Bit depth : 16 bits
    Default : Yes
    Forced : No
    DURATION : 00:00:22.567000000
    NUMBER_OF_FRAMES : 1354
    NUMBER_OF_BYTES : 130878926
    _STATISTICS_WRITING_APP : mkvmerge v7.5.0 ('Glass Culture') 64bit built on Jan 4 2015 16:48:44
    _STATISTICS_WRITING_DATE_UTC : 2015-01-11 11:08:08
    _STATISTICS_TAGS : BPS DURATION NUMBER_OF_FRAMES NUMBER_OF_BYTES

    Mediainfo nach der Aufnahme:
    Spoiler anzeigen
    General
    Complete name : F:\Aufnahme\bf4 2015-01-09 20-06-25-64.avi
    Format : AVI
    Format/Info : Audio Video Interleave
    File size : 1.17 GiB
    Duration : 22s 567ms
    Overall bit rate : 446 Mbps

    Video
    ID : 0
    Format : Fraps
    Codec ID : FPS1
    Duration : 22s 567ms
    Bit rate : 444 Mbps
    Width : 1 920 pixels
    Height : 1 080 pixels
    Display aspect ratio : 16:9
    Frame rate : 60.000 fps
    Color space : YUV
    Bit depth : 8 bits
    Bits/(Pixel*Frame) : 3.571
    Stream size : 1.17 GiB (100%)

    Audio
    ID : 1
    Format : PCM
    Format settings, Endianness : Little
    Format settings, Sign : Signed
    Codec ID : 1
    Duration : 22s 567ms
    Bit rate mode : Constant
    Bit rate : 1 411.2 Kbps
    Channel count : 2 channels
    Sampling rate : 44.1 KHz
    Bit depth : 16 bits
    Stream size : 3.80 MiB (0%)
    Alignment : Aligned on interleaves
    Interleave, duration : 981 ms (58.87 video frames)

    Mediainfo nach dem Encodieren ohne Audio(ohne Muxen):
    Spoiler anzeigen
    General
    Complete name : F:\Aufnahme\bf4 2015-01-09 20-06-25-64.mkv
    Format : Matroska
    Format version : Version 2
    File size : 125 MiB
    Duration : 22s 567ms
    Overall bit rate : 46.4 Mbps
    Writing application : x264 r2525 40bb568
    Writing library : Haali Matroska Writer b0

    Video
    ID : 1
    Format : AVC
    Format/Info : Advanced Video Codec
    Format profile : High@L5.2
    Format settings, CABAC : Yes
    Format settings, ReFrames : 4 frames
    Codec ID : V_MPEG4/ISO/AVC
    Duration : 22s 567ms
    Bit rate : 45.5 Mbps
    Width : 3 200 pixels
    Height : 1 800 pixels
    Display aspect ratio : 16:9
    Frame rate mode : Constant
    Frame rate : 60.000 fps
    Color space : YUV
    Chroma subsampling : 4:2:0
    Bit depth : 8 bits
    Scan type : Progressive
    Bits/(Pixel*Frame) : 0.132
    Stream size : 122 MiB (98%)
    Writing library : x264 core 144 r2525 40bb568
    Encoding settings : cabac=1 / ref=2 / deblock=1:0:0 / analyse=0x3:0x113 / me=hex / subme=6 / psy=1 / psy_rd=1.00:0.00 / mixed_ref=1 / me_range=16 / chroma_me=1 / trellis=1 / 8x8dct=1 / cqm=0 / deadzone=21,11 / fast_pskip=1 / chroma_qp_offset=-2 / threads=6 / lookahead_threads=1 / sliced_threads=0 / nr=0 / decimate=1 / interlaced=0 / bluray_compat=0 / constrained_intra=0 / bframes=3 / b_pyramid=2 / b_adapt=1 / b_bias=0 / direct=1 / weightb=1 / open_gop=0 / weightp=1 / keyint=600 / keyint_min=60 / scenecut=40 / intra_refresh=0 / rc_lookahead=30 / rc=crf / mbtree=1 / crf=16.0 / qcomp=0.60 / qpmin=0 / qpmax=69 / qpstep=4 / ip_ratio=1.40 / aq=1:1.00
    Language : English
    Default : Yes
    Forced : No

    Verwendetes Skript:
    Spoiler anzeigen
    AVISource("F:\Aufnahme\bf4 2015-01-09 20-06-25-64.avi", audio=false).AssumeFPS(60,1)
    audio = false
    #deinterlace
    #crop
    Lanczos4Resize(3200,1800)
    #denoise

    ConvertToYV12()

    An was könnte es liegen dass ich keine 4K 30FPS Option bekomme?
    Hier ein Link zum Video :)
    Spoiler anzeigen
    https://www.youtube.com/watch?v=hQrRwlf3PM4

  • Youtube unterschlägt allgemein alles über 1080p, sobald mit 60FPS hochgeladen wird. In Firefox und Internet Explorer ist das nicht anders. Auch Flash und HTML5 unterscheiden sich da nicht.

    Wäre eben dieses Manko nicht, wären auch schon etliche mehr auf 60FPS umgestiegen.
    Ich will der aller beste sein,
    Wie keiner vor mir war!
    Ganz allein let's play ich hier
    Mach meinen Traum jetzt wahr!

    Ich spiele schon mein Leben lang,
    doch jetzt ist es soweit.
    Ich weiß ich werd abonniert.
    Ich bin bereit!

  • Anzeige
    4k in 60 FPS könnte der Flash Player eh auf keinem handelsüblichen Rechner mehr darstellen, der tut sich ja schon mit 720p schwer.
    Mit ordentlicher Software und ordentlich Bitrate gehen da auch starke CPUs schonmal in die Knie, und 4k-Hardware-Decoding funktioniert auch nicht überall.

    Warum Youtube das aber generell nicht erlaubt, weiß ich nicht, ggf. brauchen die Encodes einfach zu viel Rechenleistung.
  • Nunja, würden sie die höheren in 30FPS zur Verfügung stellen, wäre das ja schonmal etwas. Vor allem verarbeitet Youtube erst von 360p bis 4k (stehen alle in 30FPS zur Verfügung) und danach erst verarbeitet er "noch mal von vorne" und stellt 720p60 sowie 1080p60 zur Verfügung. Die 4k-Verarbeitung wird also anscheinend sogar durchgeführt seitens Youtube.
    Ich will der aller beste sein,
    Wie keiner vor mir war!
    Ganz allein let's play ich hier
    Mach meinen Traum jetzt wahr!

    Ich spiele schon mein Leben lang,
    doch jetzt ist es soweit.
    Ich weiß ich werd abonniert.
    Ich bin bereit!

  • Die 4k-Verarbeitung wird also anscheinend sogar durchgeführt seitens Youtube.

    Hmmm. Dann ergibt das eigentlich absolut keinen Sinn. Hast du mal ein Beispiel für ein 4k/60p-Video da? Will mal gucken, in welchen Formaten sich das runterladen lässt.

    Warum könnte 4K der Flash Player nichtmehr auflösen? O.o

    Zu ineffizient. Wenn die Hardwarebeschleunigung nicht funktioniert, braucht der über 10x so viel Leistung fürs Video-Playback wie ein normaler Standalone-Player und immer noch ein Vielfaches dessen, was ein Firefox mit HTML5 braucht (und der frisst schon Leistung).
  • VikingGe schrieb:

    Warum Youtube das aber generell nicht erlaubt, weiß ich nicht, ggf. brauchen die Encodes einfach zu viel Rechenleistung.

    Chaoticer schrieb:

    Nunja, würden sie die höheren in 30FPS zur Verfügung stellen, wäre das ja schonmal etwas.


    Tun sie. 1440 und 4k werden in 30fps codiert. Allerdings nur via download erreichbar. Am Player fehlen sie. Warum auch immer ......

    @VikingGe Der JW Player kriegt 2048x1152, 60fps mit preset slow, also komplex codiert, nich dieser youtube crap, absolut butterweich und flüssig hin und der player schaltet binnen ms auf Vollbild.
    Und zwar über Flash. Und youtube schafft net mal 1080p mit 60fps aufm flash player?

    Wer hat also scheiße gebaut? Flash oder der youtube player? Liegt doch eig. auf der Hand xD

    HTML5 läuft aber absolut sauber, zumindest via Chrome. Firefox ist die Implementation ja eher mies.
    Aktuelle Projekte/Videos