Mirillis Action! - Was haltet ihr davon?

Diese Seite verwendet Cookies. Durch die Nutzung unserer Seite erklären Sie sich damit einverstanden, dass wir Cookies setzen. Weitere Informationen

  • Mirillis Action! - Was haltet ihr davon?

    Anzeige
    Was haltet ihr von dem Programm Action! von Mirillis? Habe grad eine Aufnahme von Mordors Schatten gemacht, mein Fazit:

    Keine FPS-Drops, Klasse Ton & Bildqualität und kleiner Speicherplatzverbrauch (MP4-Format, scheint Lossless zu sein, bei 7 Minuten gerade mal knapp 2 GB)

    Welche Erfahrungen habt ihr mit dem Programm?
  • GrandFiredust schrieb:

    MP4 und MKV Container brauchst du für Aufnahmen nicht. VFW Codecs (MagicYUV, Lagarith, UT Video, ...) sollten in den AVI Container.

    Und zum Audio: Sollte in PCM Wave vorliegen :)


    Dankeschön, hat mir sehr weitergeholfen! :)

    @RealLiVe so, habe jetzt einmal ne MP4 und einmal ne AVI aufgenommen.. das ist die MP4-Datei:

    Quellcode

    1. ​General
    2. Complete name : C:\Users\alex\Videos\Action!\Video 27-01-2015 19-04-20.mp4
    3. Format : MPEG-4
    4. Format profile : Base Media / Version 1
    5. Codec ID : mp41
    6. File size : 1.40 GiB
    7. Duration : 7mn 36s
    8. Overall bit rate : 26.4 Mbps
    9. Encoded date : UTC 2015-01-27 18:12:00
    10. Tagged date : UTC 2015-01-27 18:12:00
    11. Video
    12. ID : 1
    13. Format : AVC
    14. Format/Info : Advanced Video Codec
    15. Format profile : Baseline@L4.2
    16. Format settings, CABAC : No
    17. Format settings, ReFrames : 1 frame
    18. Format settings, GOP : M=1, N=121
    19. Muxing mode : Container profile=Baseline@3.0
    20. Codec ID : avc1
    21. Codec ID/Info : Advanced Video Coding
    22. Duration : 7mn 36s
    23. Duration_FirstFrame : -10ms
    24. Bit rate : 26.2 Mbps
    25. Width : 1 920 pixels
    26. Height : 1 080 pixels
    27. Display aspect ratio : 16:9
    28. Frame rate mode : Constant
    29. Frame rate : 60.000 fps
    30. Color space : YUV
    31. Chroma subsampling : 4:2:0
    32. Bit depth : 8 bits
    33. Scan type : Progressive
    34. Bits/(Pixel*Frame) : 0.211
    35. Stream size : 1.39 GiB (99%)
    36. Language : English
    37. Encoded date : UTC 2015-01-27 18:12:00
    38. Tagged date : UTC 2015-01-27 18:12:00
    39. Audio
    40. ID : 2
    41. Format : AAC
    42. Format/Info : Advanced Audio Codec
    43. Format profile : LC
    44. Codec ID : 40
    45. Duration : 7mn 36s
    46. Bit rate mode : Constant
    47. Bit rate : 128 Kbps
    48. Channel(s) : 2 channels
    49. Channel positions : Front: L R
    50. Sampling rate : 48.0 KHz
    51. Compression mode : Lossy
    52. Stream size : 6.96 MiB (0%)
    53. Language : English
    54. Encoded date : UTC 2015-01-27 18:12:00
    55. Tagged date : UTC 2015-01-27 18:12:00
    Alles anzeigen


    und das die AVI-Datei:

    Quellcode

    1. ​General
    2. Complete name : C:\Users\alex\Videos\Action!\Video 28-01-2015 00-09-21.avi
    3. Format : AVI
    4. Format/Info : Audio Video Interleave
    5. Format profile : OpenDML
    6. File size : 29.2 GiB
    7. Duration : 34mn 25s
    8. Overall bit rate : 121 Mbps
    9. Video
    10. ID : 0
    11. Format : FICV
    12. Codec ID : FICV
    13. Duration : 34mn 25s
    14. Bit rate : 120 Mbps
    15. Width : 1 920 pixels
    16. Height : 1 080 pixels
    17. Display aspect ratio : 16:9
    18. Frame rate : 30.000 fps
    19. Bits/(Pixel*Frame) : 1.925
    20. Stream size : 28.8 GiB (99%)
    21. Audio
    22. ID : 1
    23. Format : PCM
    24. Format settings, Endianness : Little
    25. Format settings, Sign : Signed
    26. Codec ID : 1
    27. Duration : 34mn 25s
    28. Bit rate mode : Constant
    29. Bit rate : 1 536 Kbps
    30. Channel(s) : 2 channels
    31. Sampling rate : 48.0 KHz
    32. Bit depth : 16 bits
    33. Stream size : 378 MiB (1%)
    34. Alignment : Aligned on interleaves
    35. Interleave, duration : 10 ms (0.30 video frame)
    Alles anzeigen

    Dieser Beitrag wurde bereits 1 mal editiert, zuletzt von Shuric ()

  • Thorhall schrieb:

    Shuric schrieb:

    Richtig nimmt vfr auf habe magicYUV genommen


    Das glaube ich nicht. Unter welchem Reiter soll man das bei Mirrilis Action einstellen können?


    Ach lol, ich merke grade das ich MSI Afterburner mit Mirillis Action bei der Angelegenheit mit magicYUV verwechselt habe.. Das war Afterburner wo es ging, bei Mirillis gibts diese Option wirklich nicht. Sorry
  • Shuric schrieb:

    Format/Info : Advanced Video Codec
    Format profile : Baseline@L4.2


    Shuric schrieb:

    Format : FICV
    Beides kein Lossless und die Auswirkungen davon kannst du meinem Link oben entnehmen. Nebenbei kannst du da auch rauslesen, dass selbst @De-M-oN beim Unterscheiden Lossless vs Lossy-Quelle verkackt :P und man das ohne Frame-Vergleich selten wirklich merken wird. Heißt im Prinzip: Sofern du Mirillis bevorzugst und es bei dir besser agiert als der Rest, take it - gekauft hast du es anscheinend ja schon. Falls du mit dem Afterburner gut zurecht kommst: Wäre meiner Meinung nach das bessere Tool, ermöglicht verlustfreie Aufnahme und deshalb eine sauberere Verarbeitung.

    MfG
    Videoempfehlungen:
    ShimmyMC
    NuRap
    ShimmyMC
    Napoleon Bonaparte

    Dieser Beitrag wurde bereits 1 mal editiert, zuletzt von RealLiVe ()

  • RealLiVe schrieb:

    Beides kein Lossless und die Auswirkungen davon kannst du meinem Link oben entnehmen. Nebenbei kannst du da auch rauslesen, dass selbst @De-M-oN beim Unterscheiden Lossless vs Lossy-Quelle verkackt und man das ohne Frame-Vergleich selten wirklich merken wird.


    Immer noch : Weil ich am falschen Ort geguckt habe. Bei Sagaras' seinem Vergleich isses mehr als eindeutig. Normal ist Dunkelheit immer am ehesten angegriffen, also guckte ich auch darauf. Aber hier wars ja sogar aufm normalem Kram. xD
    Aktuelle Projekte/Videos




    Seit etlichen Monaten komplett veraltete Signatur, wie ihr sicherlich schon bemerkt habt. Habe mittlerweile mehr als 4 Projekte, weshalb die Signatur leider momentan gesprengt ist xD
    Notdürftig die Liste was aktuell läuft: Unreal | Complex DooM (LPT) | DooM 2016 | Need For Speed III: Hot Pursuit | Dirt Rally | Dirt 4 | WRC 7
  • Ich werde morgen oder übermorgen mal ein Video auf Youtube uppen und dann könnt ihr mir ja sicherlich was zur Qualität sagen.

    Ich habe soeben ein LoL Spiel in 30 FPS recordet, das anzuschauen ist ja wirklich zum Kotzen :(

    Also zwischen 30 und 60 FPS merke ich persönlich schon einen Riesenunterschied.