Twitch Past Broadcast herunterladen

Diese Seite verwendet Cookies. Durch die Nutzung unserer Seite erklären Sie sich damit einverstanden, dass wir Cookies setzen. Weitere Informationen

  • Twitch Past Broadcast herunterladen

    Anzeige
    Moinsen, Freunde

    ich habe vor von einem meiner Streams ein Highlight-Video zu basteln. Dafür möchte ich die Videos in meiner NLE (jaa, ich weiß ich bin uncool weil ich eine NLE nutze) schneiden. Allerdings benötige ich jetzt die Videodateien von Twitch. Die Videos befinden sich dort ja bei meinem Kanal unter Past Broadcasts. Aber was ist jetzt der beste Weg, um an die Dateien heranzukommen?

    Ich habe bereits folgendes probiert:
    • Direkt von [lexicon]Twitch[/lexicon] mittels FVD Video Downloader oder anderen dubiosen Webanwendungen herunterladen. Das geht theoretisch auch, allerdings bekomme ich dann eine flv-Datei mit der ich nichts anfangen kann. Beziehungsweise, meine [lexicon]NLE[/lexicon] kann FLV-Dateien halt nicht öffnen. Konvertieren? [lexicon]Demuxen[/lexicon]? Keine Ahnung, kenne mich damit nicht aus^^.
    • Bei [lexicon]Twitch[/lexicon] das Video auf Youtube exportieren und dort im Videomanager als [lexicon]MP4[/lexicon] herunterladen. Geht leider nicht. Da das Video "matched third-party contents" enthält ist die Option zum Herunterladen leider nicht verfügbar.

    Ori and the Blind Forest #18 - Den Nebel lichten | LET'S PLAY ORI AND THE BLIND FOREST
  • Also Mediainfo sieht so aus:

    Spoiler anzeigen
    ​General
    Complete name : C:\Data\Downloads\live_user_bratwurstverkaeufer_1427738347.flv
    Format : Flash Video
    File size : 192 MiB
    Duration : 28mn 30s
    Overall bit rate : 941 Kbps
    Tagged date : UTC 2015-03-30 18:28:54
    Tagging application : flvmeta 1.1-r213
    jtv_meta : eyJvcmlnaW4iOiA0NjU0OTkyLCAiZmlsZSI6ICIvdXNyL2xvY2FsL1dvd3phTWVkaWFTZXJ2ZXJQcm8vd293emExL2NvbnRlbnQvbGl2ZV91c2VyX2JyYXR3dXJzdHZlcmthZXVmZXJfMTQyNzczODM0Ny5mbHYiLCAiZmVhdHVyZWQiOiBmYWxzZSwgIm1ldGFkYXRhX2ZpbGUiOiAiL2hvbWUvanR2L2FyY2hpdmVfZGVzY3JpcHRpb25zL3dvd3phMS9saXZlX3VzZXJfYnJhdHd1cnN0dmVya2FldWZlcl8xNDI3NzM4MzQ3LmZsdi5qc29uIiwgImF1ZGlvX2NvZGVjIjogIiIsICJwYXJ0bmVyIjogZmFsc2UsICJpZCI6IDEzNzkzNzI1MzI4LCAiY2F0ZWdvcnkiOiAiZ2FtaW5nIiwgInRpdGxlIjogIiIsICJyZWNvcmRlciI6IDQ2NTQ5OTIsICJlbWJlZF9lbmFibGVkIjogdHJ1ZSwgImNoYW5uZWwiOiAiYnJhdHd1cnN0dmVya2FldWZlciIsICJ1cF90aW1lIjogMTQyNzczODM0NywgIm1ldGFfZ2FtZSI6ICIiLCAiZm9ybWF0IjogImxpdmUiLCAic3RhcnRfdGltZSI6IDE0Mjc3MzgzNDcsICJwYXJ0IjogMSwgImdlbyI6ICJERSIsICJuYW1lIjogImxpdmVfdXNlcl9icmF0d3Vyc3R2ZXJrYWV1ZmVyIiwgInZpZGVvX2JpdHJhdGUiOiAwLCAibm9kZV9uYW1lIjogImluZ2VzdDI3LTEuc2ZvMDEiLCAiY2hhbm5lbF9pZCI6IDcxMjg0NDUzLCAiYnJvYWRjYXN0ZXIiOiAidW5rbm93bl9ydG1wIiwgInN0YXJ2ZWQiOiBmYWxzZSwgInZpZGVvX2NvZGVjIjogIiJ9

    Video
    Format : AVC
    Format/Info : Advanced Video Codec
    Format profile : Main@L4.1
    Format settings, CABAC : Yes
    Format settings, ReFrames : 4 frames
    Format settings, GOP : M=4, N=60
    Codec ID : 7
    Duration : 28mn 30s
    Bit rate : 784 Kbps
    Nominal bit rate : 850 Kbps
    Width : 852 pixels
    Height : 480 pixels
    Display aspect ratio : 16:9
    Frame rate mode : Constant
    Frame rate : 27.271 fps
    Original frame rate : 30.000 fps
    Color space : YUV
    Chroma subsampling : 4:2:0
    Bit depth : 8 bits
    Scan type : Progressive
    Bits/(Pixel*Frame) : 0.070
    Stream size : 164 MiB (86%)
    Writing library : x264 core 146 r2538 121396c
    Encoding settings : cabac=1 / ref=1 / deblock=1:0:0 / analyse=0x1:0x111 / me=hex / subme=2 / psy=1 / psy_rd=1.00:0.00 / mixed_ref=0 / me_range=16 / chroma_me=1 / trellis=0 / 8x8dct=0 / cqm=0 / deadzone=21,11 / fast_pskip=1 / chroma_qp_offset=0 / threads=12 / lookahead_threads=3 / sliced_threads=0 / nr=0 / decimate=1 / interlaced=0 / bluray_compat=0 / constrained_intra=0 / bframes=3 / b_pyramid=2 / b_adapt=1 / b_bias=0 / direct=1 / weightb=1 / open_gop=0 / weightp=1 / keyint=60 / keyint_min=6 / scenecut=40 / intra_refresh=0 / rc_lookahead=10 / rc=cbr / mbtree=1 / bitrate=850 / ratetol=1.0 / qcomp=0.60 / qpmin=0 / qpmax=69 / qpstep=4 / vbv_maxrate=850 / vbv_bufsize=510 / nal_hrd=none / filler=1 / ip_ratio=1.40 / aq=1:1.00
    Color primaries : BT.709
    Transfer characteristics : sYCC
    Matrix coefficients : BT.601

    Audio
    Format : AAC
    Format/Info : Advanced Audio Codec
    Format profile : LC
    Codec ID : 10
    Duration : 28mn 30s
    Bit rate : 125 Kbps
    Channel(s) : 2 channels
    Channel positions : Front: L R
    Sampling rate : 48.0 KHz
    Compression mode : Lossy
    Stream size : 27.1 MiB (14%)

    Ori and the Blind Forest #18 - Den Nebel lichten | LET'S PLAY ORI AND THE BLIND FOREST
  • BratwurstVerkäufer schrieb:

    Wunderbar, das war genau das, was ich brauchte^^. Klappt jetzt. Danke euch.
    Ich denke, dann kann ich hier mal schließen, da die Frage geklärt zu sein scheint und das Thema "als erledigt markiert" wurde.
    Falls noch Rückfragen auftauchen, oder ich anderwertig zu früh geschlossen haben sollte, so genügt eine kleine PN des Threaderstellers an mich.


    #CLOSED