Kein Ton bei Extrahierung über SSM (VDub)

Diese Seite verwendet Cookies. Durch die Nutzung unserer Seite erklären Sie sich damit einverstanden, dass wir Cookies setzen. Weitere Informationen

  • Kein Ton bei Extrahierung über SSM (VDub)

    Anzeige
    Hallo nochmal, langsam habe ich echt Angst das ich nerve :(
    Und zwar habe ich jetzt das Problem, dass von meinem Intro und Outro (beide MP4) die Audiospur über den SSM nicht extrahiert werden...

    Hier die Mediainfo zu den Dateien:
    Spoiler anzeigen

    General
    Complete name : D:\Aufnahmen\Intro und Outro\intro.mp4
    Format : MPEG-4
    Format profile : Base Media / Version 2
    Codec ID : mp42
    File size : 14.7 MiB
    Duration : 10s 394ms
    Overall bit rate mode : Variable
    Overall bit rate : 11.8 Mbps
    Encoded date : UTC 2015-05-11 21:40:16
    Tagged date : UTC 2015-05-11 21:40:16

    Video
    ID : 2
    Format : AVC
    Format/Info : Advanced Video Codec
    Format profile : Main@L4.2
    Format settings, CABAC : Yes
    Format settings, ReFrames : 3 frames
    Codec ID : avc1
    Codec ID/Info : Advanced Video Coding
    Duration : 10s 394ms
    Bit rate mode : Variable
    Bit rate : 11.6 Mbps
    Maximum bit rate : 24.0 Mbps
    Width : 1 920 pixels
    Height : 1 080 pixels
    Display aspect ratio : 16:9
    Frame rate mode : Constant
    Frame rate : 59.940 fps
    Standard : NTSC
    Color space : YUV
    Chroma subsampling : 4:2:0
    Bit depth : 8 bits
    Scan type : Progressive
    Bits/(Pixel*Frame) : 0.094
    Stream size : 14.4 MiB (98%)
    Language : English
    Encoded date : UTC 2015-05-11 21:40:16
    Tagged date : UTC 2015-05-11 21:40:16
    Color range : Limited

    Audio
    ID : 1
    Format : AAC
    Format/Info : Advanced Audio Codec
    Format profile : LC
    Codec ID : 40
    Duration : 10s 389ms
    Bit rate mode : Constant
    Bit rate : 192 Kbps
    Channel(s) : channel0
    Channel(s)_Original : 2 channels
    Channel positions : Front: L R
    Sampling rate : 48.0 KHz
    Compression mode : Lossy
    Stream size : 244 KiB (2%)
    Language : English
    Encoded date : UTC 2015-05-11 21:40:16
    Tagged date : UTC 2015-05-11 21:40:16


    Spoiler anzeigen

    General
    Complete name : D:\Aufnahmen\Intro und Outro\outro.mp4
    Format : MPEG-4
    Format profile : Base Media / Version 2
    Codec ID : mp42
    File size : 15.6 MiB
    Duration : 10s 816ms
    Overall bit rate mode : Variable
    Overall bit rate : 12.1 Mbps
    Encoded date : UTC 2015-05-11 14:46:14
    Tagged date : UTC 2015-05-11 14:46:14

    Video
    ID : 2
    Format : AVC
    Format/Info : Advanced Video Codec
    Format profile : Main@L4.2
    Format settings, CABAC : Yes
    Format settings, ReFrames : 3 frames
    Codec ID : avc1
    Codec ID/Info : Advanced Video Coding
    Duration : 10s 811ms
    Bit rate mode : Variable
    Bit rate : 11.9 Mbps
    Maximum bit rate : 24.0 Mbps
    Width : 1 920 pixels
    Height : 1 080 pixels
    Display aspect ratio : 16:9
    Frame rate mode : Constant
    Frame rate : 59.940 fps
    Standard : NTSC
    Color space : YUV
    Chroma subsampling : 4:2:0
    Bit depth : 8 bits
    Scan type : Progressive
    Bits/(Pixel*Frame) : 0.096
    Stream size : 15.4 MiB (98%)
    Language : English
    Encoded date : UTC 2015-05-11 14:46:14
    Tagged date : UTC 2015-05-11 14:46:14
    Color range : Limited

    Audio
    ID : 1
    Format : AAC
    Format/Info : Advanced Audio Codec
    Format profile : LC
    Codec ID : 40
    Duration : 10s 816ms
    Bit rate mode : Constant
    Bit rate : 192 Kbps
    Channel(s) : channel0
    Channel(s)_Original : 2 channels
    Channel positions : Front: L R
    Sampling rate : 48.0 KHz
    Compression mode : Lossy
    Stream size : 254 KiB (2%)
    Language : English
    Encoded date : UTC 2015-05-11 14:46:14
    Tagged date : UTC 2015-05-11 14:46:14


    Hier noch die Mediainfo der Datei in der dann theoretisch das Audio sein sollte
    Spoiler anzeigen

    General
    Complete name : D:\Aufnahmen\Scripts(rendern)\intro_Track_0.wav
    Format : Wave
    File size : 3.56 MiB
    Duration : 21s 180ms
    Overall bit rate mode : Constant
    Overall bit rate : 1 411 Kbps

    Audio
    Format : PCM
    Format settings, Endianness : Little
    Format settings, Sign : Signed
    Codec ID : 1
    Duration : 21s 180ms
    Bit rate mode : Constant
    Bit rate : 1 411.2 Kbps
    Channel(s) : 2 channels
    Sampling rate : 44.1 KHz
    Bit depth : 16 bits
    Stream size : 3.56 MiB (100%)



    Schon mal vielen vielen dank im Voraus..
    Schaut doch mal vorbei, es würde mich sehr freuen :)
    youtube.com/channel/UCgne6mYdaNvbfZcwHNzrxrA

    Gerne könnt ihr mir auch Kritik geben, entweder per PN (YouTube und hier) oder als Kommentar auf YouTube :)
  • Weiß zwar nicht wie sich dein VirtualDub Problem beheben lässt, als Alternative könntest du allerdings Audacity (2.0.6 oder neuer) probieren, wenn du nur die Audiospuren extrahieren willst.
    Gibt bestimmt eine bessere Lösung, sollte aber in deinem Fall das tun was du möchtest.
    Audacity allein reicht jedoch nicht. Wenn du Audacity gestartet hast klickst du auf Bearbeiten -> Einstellungen, wählst dort im neuen Fenster Bibliotheken aus und klickst bei FFmpeg-Bibliothek auf Herunterladen.
    Du wirst dann auf diese Seite weitergeleitet, deren Anweisungen du befolgst. Danach sollte Audacity das Video öffnen und die Audiospur extrahieren können.

    Dieser Beitrag wurde bereits 1 mal editiert, zuletzt von Kayten ()

  • Das geht damit? Ok cool dann werde ich das mal so probieren.. danke :)

    Video und Audio hätte ich dann mit MeGui's Muxer gemacht.

    Da SSM ja von dir ist, hast du eine Idee weshalb es bei mir nicht geht?
    Schaut doch mal vorbei, es würde mich sehr freuen :)
    youtube.com/channel/UCgne6mYdaNvbfZcwHNzrxrA

    Gerne könnt ihr mir auch Kritik geben, entweder per PN (YouTube und hier) oder als Kommentar auf YouTube :)
  • Weil die IDs nicht hinhauen von deinen Videos.

    Regulär:
    ID 1 - Video
    ID 2 - Audio

    Dein OBS Video aber:
    ID 1 - Audio
    ID 2 - Video

    Jetzt extrahiere mal aus alles Teilen deiner Videos nur Stream 2. Dein Intro bekommt Audio, aber Outrosound ist nicht in dieser Spur.

    OBS das gleiche.
    ID 1 - Audio
    ID 2 - Video

    Unüblich. Weil Geordnet werden Videos immer so das Videomaterial zuerst kommt, gefolgt von Audio, Untertitel, Kapiteln, etc.

    Eine gute Ordnung in Videocontainern und der SSM funktioniert auch ;D
    ID 1 kannste im SSM nicht abgreifen, da ausgegangen wird das es vom Videostream belegt ist.

    Sprich die reguläre Ordnung beim SSM sieht so aus
    ID 1 - Video -> SSM ID 0 Videotrack (Steht fest)
    ID 2 - Audio -> SSM ID 0 Audiotrack (Ab hier aufwährts unter Audio frei Wählbar)
    ID 3 - Audio -> SSM ID 1 Audiotrack
    ...