Empfohlener Aufnahme-Codec

Diese Seite verwendet Cookies. Durch die Nutzung unserer Seite erklären Sie sich damit einverstanden, dass wir Cookies setzen. Weitere Informationen

  • Empfohlener Aufnahme-Codec

    Anzeige
    Moinsen an euch alle :)
    nachdem in letzter Zeit die EMpfehlungen für den idealen Codec wechselten, bin ich mir gerade nicht sicher, was "optimal" ist, bzw unter welchen bedingungen welcher codec empfoheln wird (cpu last, festplatte usw).
    derzeit nutze ich magicyuv mit folgenden einstellungen:





    soo was nutze ich nun am besten oder bleibt alles so wie es ist? aufgenommen wird 1080p @ 60 fps und encodiert wirtd später auf 1800p :)


    mfg Tim
  • Das ist ganz abhängig davon was CPU und HDD hergeben. Du hattest doch einen ordentlichen Hexa-Core? Deine Festplatte kenne ich allerdings nicht.
    Allein das sollte Grund genug sein, nicht Predict Left zu verwenden, denn das erhöht die HDD Belastung und entlastet die CPU. Predict Median tut dementsprechend genau das Gegenteil.

    Die geringste CPU Belastung mit UtVideo bekommst du mit UtVideo YUV422 BT.709 VCM und Predict Left.
    Die geringste HDD Belastung bekommst du mit UtVideo YUV420 BT.709 VCM und Predict Median (Sehr hohe CPU Belastung durch UtVideo YUV420 Eigenart und Predict Median).
    Der beste Kompromiss ist aus meiner Sicht aktuell UtVideo YUV422 BT.709 VCM kombiniert mit Predict Median (Bessere Qualität durch YUV422, keine allzu hohe HDD Belastung dank Predict Median).
    Auf gar keinen Fall nutzen solltest du UtVideo YUV420 BT.709 VCM mit Predict Left (Nicht empfehlenswert, nur YUV420 und CPU/HDD Belastung sind kurioserweise genau so hoch wie beim besten Kompromiss).

    Beim Frame divide count musst du selber schauen was du wählst. So hoch wie nötig, so niedrig wie möglich ist wohl recht zuverlässig. Ob und wie sich das Hyperthreading bei Intel CPUs da auswirkt kann ich nicht sagen, von daher empfehle ich erstmal keinen konkreten Wert.

    Hast du eine gute HDD oder gar ein RAID0 kannst du natürlich auch die Qualität erhöhen indem du in YUV444 oder RGB aufnimmst.
    Hierfür bieten sich UtVideo RGB VCM sowie MagicYUV (RGB und YUV444) an.

    Dieser Beitrag wurde bereits 1 mal editiert, zuletzt von Kayten ()

  • Predict Median würde die HDD weiter entlasten, auf Kosten der CPU. Das dies die Kombination mit der geringsten HDD Belastung darstellt, sollt eigentlich nicht verwunderlich sein (YUV420 vs. YUV422).
    Durch den merkwürdigen UtVideo YUV420 Bug ist die CPU Belastung zwar sowieso schon unnötig hoch und wird dann noch weiter gesteigert durch Predict Median, was es als sinnvolle Empfehlung (meistens) ausschließt, aber es ging immerhin um die geringste HDD Belastung und die wird hiermit erreicht. Ohne zusätzliche Qualitätsverluste (Im Gegensatz zu MagicYUV mit YUV42x).

    Werde aber eine Anmerkung hinzufügen, dass diese Kombination eine unnötig hohe CPU Auslastung erzeugt.
  • TimBourbon schrieb:

    Wie ist das im Vergleich zu magicyuv 420?

    Von der Qualität her oder von der HDD Belastung?
    Mit MagicYUV solltest du nach Möglichkeit YUV420 oder YUV422 meiden um die Qualität nicht unnötig zu beeinträchtigen. Die genaue Begründung dazu findest du hier.
    Ansonsten aus Sicht der HDD: Keine Ahnung wie repräsentativ das ist, ich habe aber eine RGB Aufnahme gemacht und sie nachträglich mit VirtualDub mit unterschiedlichen Codecs kodiert um die Bitraten zu vergleichen (und demnach die HDD Belastung bei einer Aufnahme). So lassen sich bestimmt ungefähre Tendenzen herauslesen.

    Quelle (UtVideo RGB, Predict Median, 3 Threads):
    Spoiler anzeigen

    Quellcode

    1. General
    2. Complete name : E:\Capture\Dxtory\hl 2015-06-15 21-03-52-741.avi
    3. Format : AVI
    4. Format/Info : Audio Video Interleave
    5. Format profile : OpenDML
    6. File size : 5.69 GiB
    7. Duration : 1mn 37s
    8. Overall bit rate : 500 Mbps
    9. Original source form/Distributed by : Video:UtVideo RGB VCM Audio0:Lautsprecher (ASUS Xonar DX Audio Device) Audio1:Line (AudioBox 22VSL Audio)
    10. Writing application : DxtoryCore ver2.0.0.129
    11. Video
    12. ID : 0
    13. Format : RGB
    14. Codec ID : ULRG
    15. Codec ID/Info : Ut Video Lossless Codec
    16. Codec ID/Hint : Ut Video
    17. Duration : 1mn 37s
    18. Bit rate : 497 Mbps
    19. Width : 2 048 pixels
    20. Height : 1 152 pixels
    21. Display aspect ratio : 16:9
    22. Frame rate : 45.000 fps
    23. Color space : RGB
    24. Chroma subsampling : 4:4:4
    25. Bit depth : 8 bits
    26. Bits/(Pixel*Frame) : 4.685
    27. Stream size : 5.66 GiB (99%)
    28. Audio #1
    29. ID : 1
    30. Format : PCM
    31. Format settings, Endianness : Little
    32. Format settings, Sign : Signed
    33. Codec ID : 1
    34. Duration : 1mn 37s
    35. Bit rate mode : Constant
    36. Bit rate : 1 411.2 Kbps
    37. Channel(s) : 2 channels
    38. Sampling rate : 44.1 KHz
    39. Bit depth : 16 bits
    40. Stream size : 16.4 MiB (0%)
    41. Alignment : Aligned on interleaves
    42. Interleave, duration : 100 ms (4.50 video frames)
    43. Audio #2
    44. ID : 2
    45. Format : PCM
    46. Format settings, Endianness : Little
    47. Format settings, Sign : Signed
    48. Codec ID : 1
    49. Duration : 1mn 37s
    50. Bit rate mode : Constant
    51. Bit rate : 1 411.2 Kbps
    52. Channel(s) : 2 channels
    53. Sampling rate : 44.1 KHz
    54. Bit depth : 16 bits
    55. Stream size : 16.4 MiB (0%)
    56. Alignment : Aligned on interleaves
    57. Interleave, duration : 100 ms (4.50 video frames)
    Alles anzeigen


    UtVideo YUV422 BT.709 VCM (Predict Median, 3 Threads):
    Spoiler anzeigen

    Quellcode

    1. General
    2. Complete name : F:\Test\hl 2015-06-15 21-03-52-741-ut422.avi
    3. Format : AVI
    4. Format/Info : Audio Video Interleave
    5. Format profile : OpenDML
    6. File size : 3.48 GiB
    7. Duration : 1mn 37s
    8. Overall bit rate : 306 Mbps
    9. Original source form/Distributed by : Video:UtVideo RGB VCM Audio0:Lautsprecher (ASUS Xonar DX Audio Device) Audio1:Line (AudioBox 22VSL Audio)
    10. Writing application : DxtoryCore ver2.0.0.129
    11. Writing library : VirtualDub build 35491/release
    12. Video
    13. ID : 0
    14. Format : YUV
    15. Codec ID : ULH2
    16. Codec ID/Info : Ut Video Lossless Codec
    17. Codec ID/Hint : Ut Video
    18. Duration : 1mn 37s
    19. Bit rate : 304 Mbps
    20. Width : 2 048 pixels
    21. Height : 1 152 pixels
    22. Display aspect ratio : 16:9
    23. Frame rate : 45.000 fps
    24. Color space : YUV
    25. Chroma subsampling : 4:2:2
    26. Compression mode : Lossless
    27. Bits/(Pixel*Frame) : 2.866
    28. Stream size : 3.46 GiB (100%)
    29. Audio
    30. ID : 1
    31. Format : PCM
    32. Format settings, Endianness : Little
    33. Format settings, Sign : Signed
    34. Codec ID : 1
    35. Duration : 1mn 37s
    36. Bit rate mode : Constant
    37. Bit rate : 1 411.2 Kbps
    38. Channel(s) : 2 channels
    39. Sampling rate : 44.1 KHz
    40. Bit depth : 16 bits
    41. Stream size : 16.4 MiB (0%)
    42. Alignment : Aligned on interleaves
    43. Interleave, duration : 22 ms (1.00 video frame)
    44. Interleave, preload duration : 500 ms
    Alles anzeigen


    UtVideo YUV420 BT.709 VCM (Predict Median, 3 Threads):
    Spoiler anzeigen

    Quellcode

    1. General
    2. Complete name : F:\Test\hl 2015-06-15 21-03-52-741-ut420.avi
    3. Format : AVI
    4. Format/Info : Audio Video Interleave
    5. Format profile : OpenDML
    6. File size : 2.71 GiB
    7. Duration : 1mn 37s
    8. Overall bit rate : 238 Mbps
    9. Original source form/Distributed by : Video:UtVideo RGB VCM Audio0:Lautsprecher (ASUS Xonar DX Audio Device) Audio1:Line (AudioBox 22VSL Audio)
    10. Writing application : DxtoryCore ver2.0.0.129
    11. Writing library : VirtualDub build 35491/release
    12. Video
    13. ID : 0
    14. Format : YUV
    15. Codec ID : ULH0
    16. Codec ID/Info : Ut Video Lossless Codec
    17. Codec ID/Hint : Ut Video
    18. Duration : 1mn 37s
    19. Bit rate : 237 Mbps
    20. Width : 2 048 pixels
    21. Height : 1 152 pixels
    22. Display aspect ratio : 16:9
    23. Frame rate : 45.000 fps
    24. Color space : YUV
    25. Chroma subsampling : 4:2:0
    26. Compression mode : Lossless
    27. Bits/(Pixel*Frame) : 2.228
    28. Stream size : 2.69 GiB (99%)
    29. Audio
    30. ID : 1
    31. Format : PCM
    32. Format settings, Endianness : Little
    33. Format settings, Sign : Signed
    34. Codec ID : 1
    35. Duration : 1mn 37s
    36. Bit rate mode : Constant
    37. Bit rate : 1 411.2 Kbps
    38. Channel(s) : 2 channels
    39. Sampling rate : 44.1 KHz
    40. Bit depth : 16 bits
    41. Stream size : 16.4 MiB (1%)
    42. Alignment : Aligned on interleaves
    43. Interleave, duration : 22 ms (1.00 video frame)
    44. Interleave, preload duration : 500 ms
    Alles anzeigen


    MagicYUV (YUV420, Rec.709, Dynamic, Adaptive coding, 3 Threads):
    Spoiler anzeigen

    Quellcode

    1. General
    2. Complete name : F:\Test\hl 2015-06-15 21-03-52-741-my420.avi
    3. Format : AVI
    4. Format/Info : Audio Video Interleave
    5. Format profile : OpenDML
    6. File size : 2.79 GiB
    7. Duration : 1mn 37s
    8. Overall bit rate : 245 Mbps
    9. Original source form/Distributed by : Video:UtVideo RGB VCM Audio0:Lautsprecher (ASUS Xonar DX Audio Device) Audio1:Line (AudioBox 22VSL Audio)
    10. Writing application : DxtoryCore ver2.0.0.129
    11. Writing library : VirtualDub build 35491/release
    12. Video
    13. ID : 0
    14. Format : MAGY
    15. Codec ID : MAGY
    16. Duration : 1mn 37s
    17. Bit rate : 244 Mbps
    18. Width : 2 048 pixels
    19. Height : 1 152 pixels
    20. Display aspect ratio : 16:9
    21. Frame rate : 45.000 fps
    22. Bits/(Pixel*Frame) : 2.295
    23. Stream size : 2.77 GiB (99%)
    24. Audio
    25. ID : 1
    26. Format : PCM
    27. Format settings, Endianness : Little
    28. Format settings, Sign : Signed
    29. Codec ID : 1
    30. Duration : 1mn 37s
    31. Bit rate mode : Constant
    32. Bit rate : 1 411.2 Kbps
    33. Channel(s) : 2 channels
    34. Sampling rate : 44.1 KHz
    35. Bit depth : 16 bits
    36. Stream size : 16.4 MiB (1%)
    37. Alignment : Aligned on interleaves
    38. Interleave, duration : 22 ms (1.00 video frame)
    39. Interleave, preload duration : 500 ms
    Alles anzeigen