Aufnahme in Windows 10

Diese Seite verwendet Cookies. Durch die Nutzung unserer Seite erklären Sie sich damit einverstanden, dass wir Cookies setzen. Weitere Informationen

  • Ich würde stark auf H.264 oder WMV Kompression tippen ;D
    Aktuelle Projekte/Videos




    Seit etlichen Monaten komplett veraltete Signatur, wie ihr sicherlich schon bemerkt habt. Habe mittlerweile mehr als 4 Projekte, weshalb die Signatur leider momentan gesprengt ist xD
    Notdürftig die Liste was aktuell läuft: Unreal | Complex DooM (LPT) | DooM 2016 | Need For Speed III: Hot Pursuit | Dirt Rally | Dirt 4 | WRC 7
  • Hatte mal ne Testaufnahme gemacht, alles auf das höchste was geht.

    General
    Complete name : C:\Users\Tom\Videos\Captures\Minecraft 1.8.7 10.08.2015 23_25_27.mp4
    Format : MPEG-4
    Format profile : Base Media / Version 2
    Codec ID : mp42
    File size : 74.5 MiB
    Duration : 39s 891ms
    Overall bit rate mode : Constant
    Overall bit rate : 15.7 Mbps
    Movie name : Minecraft 1.8.7
    Performer : Microsoft Game DVR
    Encoded date : UTC 2015-08-10 21:26:06
    Tagged date : UTC 2015-08-10 21:26:06
    Xtra : {64440492-4C8B-11D1-8B70-080036B11A03} 27

    Video
    ID : 1
    Format : AVC
    Format/Info : Advanced Video Codec
    Format profile : Main@L4.1
    Format settings, CABAC : Yes
    Format settings, ReFrames : 2 frames
    Codec ID : avc1
    Codec ID/Info : Advanced Video Coding
    Duration : 39s 891ms
    Source duration : 39s 897ms
    Bit rate mode : Constant
    Bit rate : 15.5 Mbps
    Nominal bit rate : 19.5 Mbps
    Width : 1 920 pixels
    Height : 1 016 pixels
    Display aspect ratio : 1.890
    Frame rate mode : Variable
    Frame rate : 23.511 fps
    Original frame rate : 29.970 fps
    Minimum frame rate : 1.297 fps
    Maximum frame rate : 59.880 fps
    Color space : YUV
    Chroma subsampling : 4:2:0
    Bit depth : 8 bits
    Scan type : Progressive
    Bits/(Pixel*Frame) : 0.338
    Stream size : 73.7 MiB (99%)
    Source stream size : 73.7 MiB (99%)
    Encoded date : UTC 2015-08-10 21:26:06
    Tagged date : UTC 2015-08-10 21:26:06
    mdhd_Duration : 39891

    Audio
    ID : 2
    Format : AAC
    Format/Info : Advanced Audio Codec
    Format profile : LC
    Codec ID : 40
    Duration : 39s 872ms
    Source duration : 39s 872ms
    Bit rate mode : Constant
    Bit rate : 168 Kbps
    Nominal bit rate : 192 Kbps
    Channel(s) : 2 channels
    Channel positions : Front: L R
    Sampling rate : 48.0 KHz
    Compression mode : Lossy
    Stream size : 818 KiB (1%)
    Source stream size : 818 KiB (1%)
    Encoded date : UTC 2015-08-10 21:26:06
    Tagged date : UTC 2015-08-10 21:26:06
    mdhd_Duration : 39872
  • GamingShowtime schrieb:

    ich habe eben festgestellt, dass es in Windows 10 ein integriertes Aufnahmeprogramm gibt.


    Kann man in die Tonne treten.

    VideoID : 1
    Format : AVC
    Format/Info : Advanced Video Codec
    Format profile : Main@L4.1
    Format settings, CABAC : Yes
    Format settings, ReFrames : 1 frame
    Format settings, GOP : M=1, N=29
    Codec ID : avc1
    Codec ID/Info : Advanced Video Coding
    Duration : 2mn 39s
    Source duration : 2mn 39s
    Bit rate : 11.3 Mbps
    Width : 1 920 pixels
    Height : 1 080 pixels
    Display aspect ratio : 16:9
    Frame rate mode : Variable
    Frame rate : 29.149 fps
    Minimum frame rate : 7.500 fps
    Maximum frame rate : 60.120 fps
    Color space : YUV
    Chroma subsampling : 4:2:0
    Bit depth : 8 bits
    Scan type : Progressive
    Bits/(Pixel*Frame) : 0.187
    Stream size : 214 MiB (98%)
    Source stream size : 214 MiB (98%)

    AudioID : 2
    Format : AAC
    Format/Info : Advanced Audio Codec
    Format profile : LC
    Codec ID : 40
    Duration : 2mn 38s
    Source duration : 2mn 38s
    Bit rate mode : Constant
    Bit rate : 192 Kbps
    Channel(s) : 2 channels
    Channel positions : Front: L R
    Sampling rate : 48.0 KHz
    Compression mode : Lossy
    Stream size : 3.73 MiB (2%)
    Source stream size : 3.73 MiB (2%)