Vegas 12 Pro und avi

Diese Seite verwendet Cookies. Durch die Nutzung unserer Seite erklären Sie sich damit einverstanden, dass wir Cookies setzen. Weitere Informationen

  • PineapplePug schrieb:

    Habe mir schon K-Lite Codec pack , xvid codec und divx geladen. es geht aber nicht hat jmd eine Idee?
    Kannst dann gleich nochmal "neu machen" und den Mist weglassen - der verursacht auch selbst gerne mal die Probleme.

    PineapplePug schrieb:

    Ich habe meinen Pc neu gemacht. Nun Vegas wieder installiert. Aber ich kann meine Aufnhamen mit Dxtory (.avi) nicht mehr ändern. davor gin es.
    MediaInfo von der DXTory-Aufnahme wäre hilfreich.
    Videoempfehlungen:
    ShimmyMC
    NuRap
    ShimmyMC
    Napoleon Bonaparte
  • Meinte das

    General
    Complete name : G:\AUFNAHMEN\eXILE\arma3 2015-09-12 16-01-58-329.avi
    Format : AVI
    Format/Info : Audio Video Interleave
    Format profile : OpenDML
    File size : 94.4 GiB
    Duration : 23mn 21s
    Overall bit rate : 579 Mbps
    Original source form/Distributed by : Video:UtVideo YUV422 BT.709 VCM Audio0:Lautsprecher (2- Plantronics GameCom 780) Audio1:Eingang (Scarlett 2i2 USB)
    Writing application : DxtoryCore ver2.0.0.129

    Video
    ID : 0
    Format : YUV
    Codec ID : ULH2
    Codec ID/Info : Ut Video Lossless Codec
    Codec ID/Hint : Ut Video
    Duration : 23mn 21s
    Bit rate : 576 Mbps
    Width : 1 920 pixels
    Height : 1 080 pixels
    Display aspect ratio : 16:9
    Frame rate : 60.000 fps
    Color space : YUV
    Chroma subsampling : 4:2:2
    Compression mode : Lossless
    Bits/(Pixel*Frame) : 4.629
    Stream size : 93.9 GiB (99%)

    Audio #1
    ID : 1
    Format : PCM
    Format settings, Endianness : Little
    Format settings, Sign : Signed
    Codec ID : 1
    Duration : 23mn 21s
    Bit rate mode : Constant
    Bit rate : 1 536 Kbps
    Channel(s) : 1 channel
    Sampling rate : 48.0 KHz
    Bit depth : 32 bits
    Stream size : 257 MiB (0%)
    Alignment : Aligned on interleaves
    Interleave, duration : 100 ms (6.00 video frames)

    Audio #2
    ID : 2
    Format : PCM
    Format settings, Endianness : Little
    Format settings, Sign : Signed
    Codec ID : 1
    Duration : 23mn 21s
    Bit rate mode : Constant
    Bit rate : 1 536 Kbps
    Channel(s) : 1 channel
    Sampling rate : 48.0 KHz
    Bit depth : 32 bits
    Stream size : 257 MiB (0%)
    Alignment : Aligned on interleaves
    Interleave, duration : 100 ms (6.00 video frames)
  • Naja klar. Steht ja da.
    Aktuelle Projekte/Videos




    Seit etlichen Monaten komplett veraltete Signatur, wie ihr sicherlich schon bemerkt habt. Habe mittlerweile mehr als 4 Projekte, weshalb die Signatur leider momentan gesprengt ist xD
    Notdürftig die Liste was aktuell läuft: Unreal | Complex DooM (LPT) | DooM 2016 | Need For Speed III: Hot Pursuit | Dirt Rally | Dirt 4 | WRC 7