Vegas 12 Pro und der Sound

Diese Seite verwendet Cookies. Durch die Nutzung unserer Seite erklären Sie sich damit einverstanden, dass wir Cookies setzen. Weitere Informationen

  • Vegas 12 Pro und der Sound

    Anzeige
    Ich habe meien Pc neu aufgesetzt habe das Avi Problem durch Codecs gelöst!

    Aber wenn ich nun ein Video in Vegas rein ziehe sind die Audiospuren falsch, Sprich 1 sec Ton dann wieder eine Weile nichts iwas stimmt da nicht!
    kann es sein das ich vergessen habe was zu insallieren oder einzustellen?

    HIER DIE MEDIA INFO:

    General
    Complete name : G:\AUFNAHMEN\GothicMod 2015-09-17 14-19-31-134.avi
    Format : AVI
    Format/Info : Audio Video Interleave
    Format profile : OpenDML
    File size : 54.5 GiB
    Duration : 14mn 12s
    Overall bit rate : 549 Mbps
    Original source form/Distributed by : Video:UtVideo YUV422 BT.709 VCM Audio0:Lautsprecher (Plantronics GameCom 780) Audio1:Eingang (Scarlett 2i2 USB)
    Writing application : DxtoryCore ver2.0.0.129

    Video
    ID : 0
    Format : YUV
    Codec ID : ULH2
    Codec ID/Info : Ut Video Lossless Codec
    Codec ID/Hint : Ut Video
    Duration : 14mn 12s
    Bit rate : 546 Mbps
    Width : 1 920 pixels
    Height : 1 080 pixels
    Display aspect ratio : 16:9
    Frame rate : 60.000 fps
    Color space : YUV
    Chroma subsampling : 4:2:2
    Compression mode : Lossless
    Bits/(Pixel*Frame) : 4.385
    Stream size : 54.2 GiB (99%)

    Audio #1
    ID : 1
    Format : PCM
    Format settings, Endianness : Little
    Format settings, Sign : Signed
    Codec ID : 1
    Duration : 14mn 12s
    Bit rate mode : Constant
    Bit rate : 1 536 Kbps
    Channel(s) : 1 channel
    Sampling rate : 48.0 KHz
    Bit depth : 32 bits
    Stream size : 156 MiB (0%)
    Alignment : Aligned on interleaves
    Interleave, duration : 100 ms (6.00 video frames)

    Audio #2
    ID : 2
    Format : PCM
    Format settings, Endianness : Little
    Format settings, Sign : Signed
    Codec ID : 1
    Duration : 14mn 12s
    Bit rate mode : Constant
    Bit rate : 1 536 Kbps
    Channel(s) : 1 channel
    Sampling rate : 48.0 KHz
    Bit depth : 32 bits
    Stream size : 156 MiB (0%)
    Alignment : Aligned on interleaves
    Interleave, duration : 100 ms (6.00 video frames)

    Wenn ich sie Extrahiere gehen sie jedoch!

    Dieser Beitrag wurde bereits 1 mal editiert, zuletzt von PineapplePug ()

  • PineapplePug schrieb:

    48.0 KHz

    Kann auf 44.1 und Ingame Sound auf Stereo.

    Kann Vegas etwa beide Soundspuren erkennen? Meist erkennen diese Programme nur die erste Tonspur.
    Für die Ton-Nachbearbeitung ists dann eh sinnvoller, die Spuren mit dem Dxtory-Extracter zu extrahieren und dann in Vegas einzufügen.

    Eine Environment Info wäre möglicherweise auch noch hilfreich.

    Aber wie ich gerade in einem deiner alten Threads sehe, hast du ein Codec-Pack installiert. Also wäre eine Neuinstallation des Betriebssystems sowieso anzuraten - vor allem, da es bei dir ja eh noch frisch ist.
    Let's Player kommen und gehen.
    Das LetsPlayForum bleibt.
    Auch für nicht-Let's Player.


  • Anzeige
    ne das war ein anderer Grund ich hatte Probleme mit der Hardware wie sich rausgestellt hatte, und haben dann gesagt machen wa auch einm den pc neu!

    das Problem is ja nich das er Sound gar nicht da is sondern,

    das der sound ma 1sec da is dann wieder weg für 10 sec dann wieder 1 sec sound usw.
    wenn ich die Spuren extrahiere kann ich es normal einbauen in vegas!

    aber wieso sollten den die codec packs ein grund für ein erneutes Aufsetzen sein?
  • PineapplePug schrieb:

    dh codecs direkt laden die man sicher brauch!
    kann man die nich einfach deinstallieren?

    Richtig, nur die die man braucht :)

    Codec packs greifen zum Teil erheblich in die system registry ein, und was noch schlimmer ist, man kann sie eben NICHT einfach so wieder deinstallieren, da man sich damit, wenn es denn nicht schon vorher passiert ist, im Zweifelsfall das System zerschießt (v.a., was die Wiedergabe von Audio-/Videodateien angeht).

    Falls du trotzdem - aus welchen Gründen auch immer - ein codec pack installieren solltest, setz auf jeden Fall vorher einen Systemwiederherstellungspunkt.
    I´m selling these fine leather jackets.