OBS Multiplatform - Audio Problem

Diese Seite verwendet Cookies. Durch die Nutzung unserer Seite erklären Sie sich damit einverstanden, dass wir Cookies setzen. Weitere Informationen

  • OBS Multiplatform - Audio Problem

    Anzeige
    Moin. Ich probiere gerade OBS Multiplatform. Video ist ok, aber beim Audio habe ich ein Problem.
    Ich nutze zZ 2 Spuren. eingestellt auf 320kbit/s. Dies wird aber nur bei der zweiten Spur(Mikrofon) angewandt.

    Mediainfo sagt folgendes:
    Audio #1
    ID : 2
    Format : AAC
    Format/Info : Advanced Audio Codec
    Format profile : LC
    Codec ID : 40
    Duration : 22s 123ms
    Bit rate mode : Variable
    Bit rate : 132 Kbps
    Maximum bit rate : 160 Kbps
    Channel(s) : 2 channels
    Channel positions : Front: L R
    Sampling rate : 48.0 KHz
    Compression mode : Lossy
    Stream size : 357 KiB (0%)
    Title : Ingame

    Audio #2
    ID : 3
    Format : AAC
    Format/Info : Advanced Audio Codec
    Format profile : LC
    Codec ID : 40
    Duration : 22s 102ms
    Bit rate mode : Variable
    Bit rate : 320 Kbps
    Channel(s) : 2 channels
    Channel positions : Front: L R
    Sampling rate : 48.0 KHz
    Compression mode : Lossy
    Stream size : 857 KiB (1%)
    Title : Mikrofon

    Die Frage die mir nun aufkommt ist,
    Ist dies ein bekannter Bug? Oder exklusiv für mich?