Mirillis Action! Audiodateien werden ewig verarbeitet

Diese Seite verwendet Cookies. Durch die Nutzung unserer Seite erklären Sie sich damit einverstanden, dass wir Cookies setzen. Weitere Informationen

  • Mirillis Action! Audiodateien werden ewig verarbeitet

    Anzeige
    Guten Tag Forum,

    ich habe schon seit ich Mirillis Action! besitze und damit arbeite, das Problem, dass meine Audiodateien von Adobe Premiere Pro ewig verarbeitet werden.
    Es fängt damit an, dass ich die Dateien in Premiere importiere. Die Peak-Datei Erstellung dauert bei einem 15 minütigen Video satte 5 Minuten. Bei einem Video mit DXTory aufgenommen, ist dies nicht der Fall. Da dauert es höchstens eine Minute.

    Damit könnte ich ja auch leben, jedoch ist es damit nicht getan!

    Beim Exportvorgang werden die Audiospuren ebenfalls Ewigkeiten erstellt, bevor es mit dem eigentlichen encodieren überhaupt losgeht.
    Dieser Workflow ist definitiv nicht gut.


    Über eine Antwort würde ich mich freuen.

    Mediainfo zum Vergleich:
    Action! .AVI File

    DXTory File



    Hat jemand das selbe Problem mit der Audiospur der .AVI? Das würde mich sehr interessieren :)

    Ein Extract des Audiostreams bringt nur bedingt was, da die Peak Datei trotzdem von Premiere erstellt wird.
    Warum ich nicht vollständig zu DXTory wechsele? -> Perfomance! Selbst bei meinem i7-5820k, 16 GB DDR4 RAM und GTX980 ist die Perfomance von DXTory nicht gerade toll.

    MagicYUV Codec bei DXTory.

    Vielen Dank und einen schönen Nikolaus! :)
    Meinen Kanal findest du hier.
  • Ganze MediaInfo der beiden Avi-Dateien in Textform bitte.

    Bei Performancebeschwerden mit Dxtory solltest du folgendes posten:
    • [lexicon]Environment Information[/lexicon]
    • Das problematische Spiel und dessen Einstellungen (z.B. [lexicon]VSync[/lexicon])
    • Einstellungen des Codecs ([lexicon]MagicYUV[/lexicon])
    • Messung der Geschwindigkeit der Aufnahmeplatte mit CrystalDiskMark
  • Okay. Eins nach dem anderen :D Erst die MediaInfo in Textform:
    Bitte die Länge des Videos nicht beachten. Habe im Moment keine Beispieldateien da.
    und nochwas:
    Das Extracten des Audio Streams dauert beim Action AVI File drei mal so lang wie beim DXTory File. Auch bei der gleichen Länge.


    ACTION FILE
    Spoiler anzeigen

    General
    Complete name : K:\Marc\League of Legends 30-11-2015 21-35-07.avi
    Format : AVI
    Format/Info : Audio Video Interleave
    Format profile : OpenDML
    File size : 27.3 GiB
    Duration : 27mn 19s
    Overall bit rate : 143 Mbps

    Video
    ID : 0
    Format : FICV
    Codec ID : FICV
    Duration : 27mn 19s
    Bit rate : 140 Mbps
    Width : 1 920 pixels
    Height : 1 080 pixels
    Display aspect ratio : 16:9
    Frame rate : 50.000 fps
    Bits/(Pixel*Frame) : 1.354
    Stream size : 26.8 GiB (98%)

    Audio #1
    ID : 1
    Format : PCM
    Format settings, Endianness : Little
    Format settings, Sign : Signed
    Codec ID : 1
    Duration : 27mn 19s
    Bit rate mode : Constant
    Bit rate : 1 411.2 Kbps
    Channel(s) : 2 channels
    Sampling rate : 44.1 KHz
    Bit depth : 16 bits
    Stream size : 276 MiB (1%)
    Alignment : Aligned on interleaves
    Interleave, duration : 10 ms (0.50 video frame)

    Audio #2
    ID : 2
    Format : PCM
    Format settings, Endianness : Little
    Format settings, Sign : Signed
    Codec ID : 1
    Duration : 27mn 19s
    Bit rate mode : Constant
    Bit rate : 1 411.2 Kbps
    Channel(s) : 2 channels
    Sampling rate : 44.1 KHz
    Bit depth : 16 bits
    Stream size : 276 MiB (1%)
    Alignment : Aligned on interleaves
    Interleave, duration : 10 ms (0.50 video frame)


    DXTory File
    Spoiler anzeigen
    ​General
    Complete name : J:\Recordings\javaw 2015-12-06 18-42-16-212.avi
    Format : AVI
    Format/Info : Audio Video Interleave
    Format profile : OpenDML
    File size : 67.2 GiB
    Duration : 14mn 39s
    Overall bit rate : 656 Mbps
    Original source form/Distributed by : Video:MagicYUV lossless video codec v1.1 (32 bit) Audio0:Kopfhörer (Logitech G35 Gaming Headset) Audio1:Eingang (Scarlett 2i2 USB)
    Writing application : DxtoryCore ver2.0.0.127

    Video
    ID : 0
    Format : MAGY
    Codec ID : MAGY
    Duration : 14mn 39s
    Bit rate : 653 Mbps
    Width : 1 920 pixels
    Height : 1 080 pixels
    Display aspect ratio : 16:9
    Frame rate : 50.000 fps
    Bits/(Pixel*Frame) : 6.301
    Stream size : 66.9 GiB (100%)

    Audio #1
    ID : 1
    Format : PCM
    Format settings, Endianness : Little
    Format settings, Sign : Signed
    Codec ID : 1
    Duration : 14mn 39s
    Bit rate mode : Constant
    Bit rate : 1 536 Kbps
    Channel(s) : 2 channels
    Sampling rate : 48.0 KHz
    Bit depth : 16 bits
    Stream size : 161 MiB (0%)
    Alignment : Aligned on interleaves
    Interleave, duration : 100 ms (5.00 video frames)

    Audio #2
    ID : 2
    Format : PCM
    Format settings, Endianness : Little
    Format settings, Sign : Signed
    Codec ID : 1
    Duration : 14mn 39s
    Bit rate mode : Constant
    Bit rate : 768 Kbps
    Channel(s) : 1 channel
    Sampling rate : 48.0 KHz
    Bit depth : 16 bits
    Stream size : 80.6 MiB (0%)
    Alignment : Aligned on interleaves
    Interleave, duration : 100 ms (5.00 video frames)
    Meinen Kanal findest du hier.
  • Anzeige

    flymia schrieb:

    Das Extracten des Audio Streams dauert beim Action AVI File drei mal so lang wie beim DXTory File.

    Möglicherweise benutzt Action einen anderen AVI Container als Dxtory.

    Der verlustkomrimierte Videocodec verlangt vielleicht einen komplizierteren Container, der dann länger zum demuxen braucht.
    ~ Let's plays, Animes, Cinematics, Zeichnungen ~ :D