Problem beim Schneiden mit Audio (Adobe Premiere Elements)

Diese Seite verwendet Cookies. Durch die Nutzung unserer Seite erklären Sie sich damit einverstanden, dass wir Cookies setzen. Weitere Informationen

  • Problem beim Schneiden mit Audio (Adobe Premiere Elements)

    Anzeige
    Hallo!

    Ich wollte mein Videomaterial mal schneiden und bin deshalb extra auf Bandicam mit mp4 Format umgestiegen, da mein Schnitt-Programm (Adobe Premiere Elements) Probleme mit AVI hat (und da Dxtory bei DayZ die FPS ordentlich drückt). Wenn ich mir das aufgenommene Material nun anschaue, passt alles von der Tonspur her. Importiere ich es in Premiere Elements, dann ist alles auf einmal asynchron, da an manchen Stellen Premiere anscheinend das Material "vorspult". Bin da echt am Verzweifeln, ich muss manche Stellen einfach raus schneiden, aber dann ist mein gesamtes Material asynchron.
    Kennt jemand das Problem und hat eine Lösung?

    MfG
  • Richtig, danke! :)

    Quellcode

    1. General
    2. Complete name : D:\Let's Play\DayZ 2015-12-16 20-46-46-648.mp4
    3. Format : MPEG-4
    4. Format profile : Base Media
    5. Codec ID : isom (mp41)
    6. File size : 6.05 GiB
    7. Duration : 27mn 18s
    8. Overall bit rate mode : Variable
    9. Overall bit rate : 31.7 Mbps
    10. Encoded date : UTC 2015-12-16 19:46:46
    11. Tagged date : UTC 2015-12-16 19:46:46
    12. Writing application : BandiMp4Muxer 1.0
    13. Video
    14. ID : 1
    15. Format : AVC
    16. Format/Info : Advanced Video Codec
    17. Format profile : Main@L4
    18. Format settings, CABAC : Yes
    19. Format settings, ReFrames : 1 frame
    20. Codec ID : avc1
    21. Codec ID/Info : Advanced Video Coding
    22. Duration : 27mn 18s
    23. Bit rate : 31.4 Mbps
    24. Width : 1 920 pixels
    25. Height : 1 080 pixels
    26. Display aspect ratio : 16:9
    27. Frame rate mode : Variable
    28. Frame rate : 25.300 fps
    29. Minimum frame rate : 0.938 fps
    30. Maximum frame rate : 30.030 fps
    31. Original frame rate : 30.000 fps
    32. Color space : YUV
    33. Chroma subsampling : 4:2:0
    34. Bit depth : 8 bits
    35. Scan type : Progressive
    36. Bits/(Pixel*Frame) : 0.598
    37. Stream size : 5.98 GiB (99%)
    38. Language : English
    39. Encoded date : UTC 2015-12-16 19:46:46
    40. Tagged date : UTC 2015-12-16 19:46:46
    41. Audio #1
    42. ID : 2
    43. Format : AAC
    44. Format/Info : Advanced Audio Codec
    45. Format profile : LC
    46. Codec ID : 40
    47. Duration : 27mn 18s
    48. Duration_LastFrame : 7ms
    49. Bit rate mode : Variable
    50. Bit rate : 192 Kbps
    51. Maximum bit rate : 312 Kbps
    52. Channel(s) : 2 channels
    53. Channel positions : Front: L R
    54. Sampling rate : 48.0 KHz
    55. Frame rate : 46.875 fps (1024 spf)
    56. Compression mode : Lossy
    57. Stream size : 37.7 MiB (1%)
    58. Language : English
    59. Encoded date : UTC 2015-12-16 19:46:46
    60. Tagged date : UTC 2015-12-16 19:46:46
    61. Audio #2
    62. ID : 3
    63. Format : AAC
    64. Format/Info : Advanced Audio Codec
    65. Format profile : LC
    66. Codec ID : 40
    67. Duration : 27mn 18s
    68. Bit rate mode : Variable
    69. Bit rate : 179 Kbps
    70. Maximum bit rate : 285 Kbps
    71. Channel(s) : 2 channels
    72. Channel positions : Front: L R
    73. Sampling rate : 48.0 KHz
    74. Frame rate : 46.875 fps (1024 spf)
    75. Compression mode : Lossy
    76. Stream size : 34.9 MiB (1%)
    77. Language : English
    78. Encoded date : UTC 2015-12-16 19:46:46
    79. Tagged date : UTC 2015-12-16 19:46:46
    Alles anzeigen