(VirtualDub) Aufnahme zu schnell

Diese Seite verwendet Cookies. Durch die Nutzung unserer Seite erklären Sie sich damit einverstanden, dass wir Cookies setzen. Weitere Informationen

  • (VirtualDub) Aufnahme zu schnell

    Anzeige
    Hi all,
    ich nehme mit AmarecTV mein Video Signal auf und mit VirtualDub das Mic und die FaceCam. Bisher hat das auch gut funktioniert. Heute ist plötzlich folgendes passiert: Nach zwei Aufnahmen, etwa 17 min und 15 min war die VirtualDub Aufnahme (also FaceCam+Mic) etwa 14% zu schnell. Das habe daran gemerkt weil dies der Unterschied zur AmarecTV Aufnahme war. Dabei will ich hervorheben das bei Aufnahme Sessions, obwohl unterschiedlich lang, jeweils eine 14% schneller VirtualDub Aufnahme haben.

    Ich konnte den Ton in Audacity und die Facecam im TMPGenc zwar auf 86% Geschwindigkeit stellen und die damit wieder anpassen, jedoch ist das ja nicht optimal für die Zukunft. Folgende Beobachtungen kann ich noch machen: Mit MPC-HC scheint es so als wäre die Aufnahme länger, sprich das Ende spielt nicht weiter, aber die Aufnahme ist komplett. Die MediaInfo zeigt dann die tatsächliche länge der Spur.

    Wie gesagt, an den Einstellungen in Virtualdub hatte ich nichts geändert. Folgendes ist jedoch passiert seit den vorherigen Aufnahmen (also bei denen alles Reibungslos lief) Ich habe den USB stecker von Mic+c920 Webcam in andere Ports gesteckt. Die USB3.0 Treiber auf die letzten Intel Treiber aktualisiert und die Logitech Software aktualisiert. [Alles nimmt auf ein Raid0 mit 350MB/s auf, Win7, AntiVir war aus]

    Hier die Media Infos der beiden Sessions, jeweils die Amarec Aufnahme (die korrekt abspielt) und dann die Virtualdub Aufnahme (welche um 14% zu schnell ist):

    Amarec Aufnahme 1
    Spoiler anzeigen
    General
    Complete name : R:\LP Roh\amarec(1).avi
    Format : AVI
    Format/Info : Audio Video Interleave
    File size : 68.3 GiB
    Duration : 18mn 2s
    Overall bit rate : 542 Mbps

    Video
    ID : 0
    Format : YUV
    Codec ID : ULH2
    Codec ID/Info : Ut Video Lossless Codec
    Codec ID/Hint : Ut Video
    Duration : 18mn 2s
    Bit rate : 519 Mbps
    Width : 1 920 pixels
    Height : 1 080 pixels
    Display aspect ratio : 16:9
    Frame rate : 60.000 fps
    Color space : YUV
    Chroma subsampling : 4:2:2
    Compression mode : Lossless
    Bits/(Pixel*Frame) : 4.172
    Stream size : 65.4 GiB (96%)

    Audio
    ID : 1
    Format : PCM
    Format settings, Endianness : Little
    Format settings, Sign : Signed
    Codec ID : 1
    Duration : 18mn 2s
    Bit rate mode : Constant
    Bit rate : 1 411.2 Kbps
    Channel(s) : 2 channels
    Sampling rate : 44.1 KHz
    Bit depth : 16 bits
    Stream size : 182 MiB (0%)
    Alignment : Aligned on interleaves


    VirtualDub Aufnahme 1
    Spoiler anzeigen
    General
    Complete name : R:\LP Roh\CamMic1.avi
    Format : AVI
    Format/Info : Audio Video Interleave
    Format profile : OpenDML
    File size : 5.09 GiB
    Duration : 15mn 26s
    Overall bit rate : 47.2 Mbps

    Video
    ID : 0
    Format : YUV
    Codec ID : ULH2
    Codec ID/Info : Ut Video Lossless Codec
    Codec ID/Hint : Ut Video
    Duration : 15mn 26s
    Bit rate : 46.5 Mbps
    Width : 640 pixels
    Height : 480 pixels
    Display aspect ratio : 4:3
    Frame rate : 30.000 fps
    Color space : YUV
    Chroma subsampling : 4:2:2
    Compression mode : Lossless
    Bits/(Pixel*Frame) : 5.049
    Stream size : 5.02 GiB (98%)

    Audio
    ID : 1
    Format : PCM
    Format settings, Endianness : Little
    Format settings, Sign : Signed
    Codec ID : 1
    Duration : 15mn 26s
    Bit rate mode : Constant
    Bit rate : 705.6 Kbps
    Channel(s) : 1 channel
    Sampling rate : 44.1 KHz
    Bit depth : 16 bits
    Stream size : 77.9 MiB (1%)
    Alignment : Aligned on interleaves
    Interleave, duration : 29 ms (0.86 video frame)
    Interleave, preload duration : 66 ms


    AmarecTV Aufnahme 2
    Spoiler anzeigen
    General
    Complete name : R:\LP Roh\amarec(20160310-2229).avi
    Format : AVI
    Format/Info : Audio Video Interleave
    File size : 64.8 GiB
    Duration : 16mn 3s
    Overall bit rate : 577 Mbps

    Video
    ID : 0
    Format : YUV
    Codec ID : ULH2
    Codec ID/Info : Ut Video Lossless Codec
    Codec ID/Hint : Ut Video
    Duration : 16mn 3s
    Bit rate : 553 Mbps
    Width : 1 920 pixels
    Height : 1 080 pixels
    Display aspect ratio : 16:9
    Frame rate : 60.000 fps
    Color space : YUV
    Chroma subsampling : 4:2:2
    Compression mode : Lossless
    Bits/(Pixel*Frame) : 4.446
    Stream size : 62.1 GiB (96%)

    Audio
    ID : 1
    Format : PCM
    Format settings, Endianness : Little
    Format settings, Sign : Signed
    Codec ID : 1
    Duration : 16mn 3s
    Bit rate mode : Constant
    Bit rate : 1 411.2 Kbps
    Channel(s) : 2 channels
    Sampling rate : 44.1 KHz
    Bit depth : 16 bits
    Stream size : 162 MiB (0%)
    Alignment : Aligned on interleaves




    VirtualDub Aufnahme 2
    Spoiler anzeigen
    General
    Complete name : R:\LP Roh\CamMic.avi
    Format : AVI
    Format/Info : Audio Video Interleave
    Format profile : OpenDML
    File size : 4.41 GiB
    Duration : 13mn 47s
    Overall bit rate : 45.8 Mbps

    Video
    ID : 0
    Format : YUV
    Codec ID : ULH2
    Codec ID/Info : Ut Video Lossless Codec
    Codec ID/Hint : Ut Video
    Duration : 13mn 47s
    Bit rate : 45.0 Mbps
    Width : 640 pixels
    Height : 480 pixels
    Display aspect ratio : 4:3
    Frame rate : 30.000 fps
    Color space : YUV
    Chroma subsampling : 4:2:2
    Compression mode : Lossless
    Bits/(Pixel*Frame) : 4.887
    Stream size : 4.34 GiB (98%)

    Audio
    ID : 1
    Format : PCM
    Format settings, Endianness : Little
    Format settings, Sign : Signed
    Codec ID : 1
    Duration : 13mn 47s
    Bit rate mode : Constant
    Bit rate : 705.6 Kbps
    Channel(s) : 1 channel
    Sampling rate : 44.1 KHz
    Bit depth : 16 bits
    Stream size : 69.6 MiB (2%)
    Alignment : Aligned on interleaves
    Interleave, duration : 29 ms (0.86 video frame)
    Interleave, preload duration : 66 ms



    Ich hoffe das euch dazu etwas einfällt :) Danke schonmal!