Bild- und/oder Tonprobleme mit Elgato

Diese Seite verwendet Cookies. Durch die Nutzung unserer Seite erklären Sie sich damit einverstanden, dass wir Cookies setzen. Weitere Informationen

  • Bild- und/oder Tonprobleme mit Elgato

    Anzeige
    Hallo,

    Ich nehme momentan mit der ganz normalen Elgato & deren Software auf. Seit einiger Zeit habe ich aber ziemliche Probleme damit.
    Wenn das Vorschaufenster bei laufender Aufnahme aktiviert ist, werden nach der ersten Aufnahme (die immer perfekt ist) die weiteren Aufnahmen mit Bildhängern und Rucklern aufgenommen.
    Bei ausgeschaltetem Vorschaufenster ist dann aber nach der ersten Aufnahme die Tonspur ganz leicht verschoben (zu sehen bei meinem aktuellen UNCHARTED2 Projekt) und somit asynchron.

    Woran kann das liegen? Hatte ne ganze weile nie Probleme damit, plötzlich schon.
  • GamepadHero schrieb:

    Hatte ne ganze weile nie Probleme damit, plötzlich schon.

    In letzter Zeit tauchen verstärkt Probleme mit der Elgato-Aufnahme hier im Forum auf, kann es sein dass da eine neue Version rausgekommen ist die irgendwie unsauber arbeitet? ?(

    Zum Problem mit den Rucklern kann ich dir leider nicht helfen, aber zum Thema Asynchronität: Jede Wette, dass es auch bei dir an der variablen Framerate liegt. Eine Mediainfo der Aufnahmedatei verrät da mehr.
  • Ich habe aber gar kein Update gemacht, vielleicht ging das im Hintergrund mal. Wäre mir aber aufgefallen.

    Mediainfo einer asynchronen Datei:

    Spoiler anzeigen
    General
    Complete name : C:\Users\Dennis\Mein Kram\0_GamepadHero\1_Rendern\2Drake11 - UNCHARTED - 2016-03-06 22-49-06.mp4
    Format : MPEG-4
    Codec ID : M4V (M4V /M4A /mp42/isom)
    File size : 1.36 GiB
    Duration : 20mn 8s
    Overall bit rate mode : Variable
    Overall bit rate : 9 631 Kbps
    Movie name : UNCHARTED
    Description : Hier Beschreibung einfügen.
    Recorded date : 2016-03-06
    Encoded date : UTC 2016-03-06 21:09:31
    Tagged date : UTC 2016-03-06 21:09:31

    Video
    ID : 1
    Format : AVC
    Format/Info : Advanced Video Codec
    Format profile : High@L3.1
    Format settings, CABAC : Yes
    Format settings, ReFrames : 2 frames
    Format settings, GOP : M=2, N=8
    Codec ID : avc1
    Codec ID/Info : Advanced Video Coding
    Duration : 20mn 8s
    Bit rate mode : Variable
    Bit rate : 9 401 Kbps
    Maximum bit rate : 18.6 Mbps
    Width : 1 280 pixels
    Height : 720 pixels
    Display aspect ratio : 16:9
    Frame rate mode : Constant
    Frame rate : 29.970 (29970/1000) fps
    Original frame rate : 29.970 (30000/1001) fps
    Color space : YUV
    Chroma subsampling : 4:2:0
    Bit depth : 8 bits
    Scan type : Progressive
    Bits/(Pixel*Frame) : 0.340
    Stream size : 1.32 GiB (98%)
    Language : English
    Encoded date : UTC 2016-03-06 21:09:31
    Tagged date : UTC 2016-03-06 21:09:31
    Color range : Limited
    Color primaries : BT.709
    Transfer characteristics : BT.709
    Matrix coefficients : BT.709

    Audio
    ID : 2
    Format : AAC
    Format/Info : Advanced Audio Codec
    Format profile : LC
    Codec ID : 40
    Duration : 20mn 8s
    Source duration : 20mn 8s
    Source_Duration_LastFrame : 14ms
    Bit rate mode : Constant
    Nominal bit rate : 216 Kbps
    Channel(s) : 2 channels
    Channel positions : Front: L R
    Sampling rate : 48.0 KHz
    Frame rate : 46.875 fps (1024 spf)
    Compression mode : Lossy
    Source stream size : 31.9 MiB (2%)
    Language : English
    Encoded date : UTC 2016-03-06 21:09:31
    Tagged date : UTC 2016-03-06 21:09:31
    mdhd_Duration : 1208964



    Mediainfo einer synchronen Folge

    Spoiler anzeigen
    General
    Complete name : C:\Users\Dennis\Mein Kram\0_GamepadHero\1_Rendern\2Drake12 - UNCHARTED - 2016-03-13 21-48-18.mp4
    Format : MPEG-4
    Codec ID : M4V (M4V /M4A /mp42/isom)
    File size : 1.37 GiB
    Duration : 19mn 33s
    Overall bit rate mode : Variable
    Overall bit rate : 10.0 Mbps
    Movie name : UNCHARTED
    Description : Hier Beschreibung einfügen.
    Recorded date : 2016-03-13
    Encoded date : UTC 2016-03-13 20:07:55
    Tagged date : UTC 2016-03-13 20:07:55

    Video
    ID : 1
    Format : AVC
    Format/Info : Advanced Video Codec
    Format profile : High@L3.1
    Format settings, CABAC : Yes
    Format settings, ReFrames : 2 frames
    Format settings, GOP : M=2, N=8
    Codec ID : avc1
    Codec ID/Info : Advanced Video Coding
    Duration : 19mn 33s
    Bit rate mode : Variable
    Bit rate : 9 811 Kbps
    Maximum bit rate : 18.6 Mbps
    Width : 1 280 pixels
    Height : 720 pixels
    Display aspect ratio : 16:9
    Frame rate mode : Constant
    Frame rate : 29.970 (29970/1000) fps
    Original frame rate : 29.970 (30000/1001) fps
    Color space : YUV
    Chroma subsampling : 4:2:0
    Bit depth : 8 bits
    Scan type : Progressive
    Bits/(Pixel*Frame) : 0.355
    Stream size : 1.34 GiB (98%)
    Language : English
    Encoded date : UTC 2016-03-13 20:07:55
    Tagged date : UTC 2016-03-13 20:07:55
    Color range : Limited
    Color primaries : BT.709
    Transfer characteristics : BT.709
    Matrix coefficients : BT.709

    Audio
    ID : 2
    Format : AAC
    Format/Info : Advanced Audio Codec
    Format profile : LC
    Codec ID : 40
    Duration : 19mn 33s
    Source duration : 19mn 33s
    Bit rate mode : Constant
    Bit rate : 216 Kbps
    Channel(s) : 2 channels
    Channel positions : Front: L R
    Sampling rate : 48.0 KHz
    Frame rate : 46.875 fps (1024 spf)
    Compression mode : Lossy
    Stream size : 31.0 MiB (2%)
    Source stream size : 31.0 MiB (2%)
    Language : English
    Encoded date : UTC 2016-03-13 20:07:55
    Tagged date : UTC 2016-03-13 20:07:55
    mdhd_Duration : 1173658

  • Moin, warum das asynchron wird, wird dir nur der Support selber verraten können. Die Media Infos sehen gut aus, beide haben konstante Frame Rate, ansonsten scheint auch alles zu passen. Scheint was mit der Software nicht zu stimmen. Würde da mal hin schreiben, für den Preis darf man schon erwarten, dass es vernünftig funktioniert.
    Das Jahr kennt seinen letzten Tag, der Mensch nicht.
    Martin Luther
  • Anzeige
    neue Versionen werden nicht ungefragt installiert, dewegen wirds nicht daran liegen. Aber die Ruckler etc kenne ich eingentlich nur von "überforderter" Hardware, so dass sich eben Lags einschleichen. Vielleicht passiert da im Hintergrund mysteriöses...
    Das mit dem leicht asynchron kommt vielleicht von den 4,7 Gb Splits, die frühere Software-Versionen gemacht haben...
  • GamepadHero schrieb:

    Source_Duration_LastFrame : 14ms
    Das steht bei deiner Asynchronen Mediainfo drin. Bei der synchronen ist dieser Eintrag nicht.

    Würde jetzt einfach mal sagen das es 14ms verschoben ist oder einfach nur fehlen, da er wie ich das lese die Files splittet bei der Aufnahme. Sprich eine Verzögerung zum Initialisieren der Aufnahme und Beenden dieser herrscht.

    Könnte man nachträglich ausgleichen lassen. Ob das aber so gewollt war von Elgato wage ich zu bezweifeln. Da wurden gewiss die falschen Konfis getroffen.