Knarz/Knack/Fiep-Geräusche nach Magix Deluxe Export

Diese Seite verwendet Cookies. Durch die Nutzung unserer Seite erklären Sie sich damit einverstanden, dass wir Cookies setzen. Weitere Informationen

  • Knarz/Knack/Fiep-Geräusche nach Magix Deluxe Export

    Anzeige
    Guten Morgen,

    ich habe folgendes Problem.
    Undzwar teste ich gerade den Magix Deluxe und mir ist aufgefallen, dass nach dem Export des Videos die *.avi Knarz/Knack/Fiep-Geräusche beinhaltet.
    Im Original sind keine Störgeräusche wahrzunehmen, diese entstehen scheinbar erst beim Exportieren.

    Bei den Einstellungen habe ich mich strikt an dieses Tutorial gehalten:


    Falls ihr weitere Infos benötigt, reiche ich sie gerne nach.

    Soweit erstmal vielen Dank!
  • Vielen Dank schon einmal, Julien.

    Hier die gewünschten Infos. Ich hoffe, die MediaInfo vom gerenderten Teil sind richtig?

    Quellcode

    1. General
    2. Complete name : D:\Videos\Gerendered\2016-06-11.avi
    3. Format : AVI
    4. Format/Info : Audio Video Interleave
    5. File size : 19.8 MiB
    6. Duration : 1mn 34s
    7. Overall bit rate : 1 752 Kbps
    8. Video
    9. ID : 0
    10. Format : x264
    11. Codec ID : x264
    12. Duration : 1mn 34s
    13. Bit rate : 263 Kbps
    14. Width : 1 920 pixels
    15. Height : 1 200 pixels
    16. Display aspect ratio : 16:10
    17. Frame rate : 60.000 fps
    18. Bits/(Pixel*Frame) : 0.002
    19. Stream size : 2.97 MiB (15%)
    20. Audio
    21. ID : 1
    22. Format : PCM
    23. Format settings, Endianness : Little
    24. Format settings, Sign : Signed
    25. Codec ID : 1
    26. Duration : 1mn 34s
    27. Bit rate mode : Constant
    28. Bit rate : 1 411.2 Kbps
    29. Channel(s) : 2 channels
    30. Sampling rate : 44.1 KHz
    31. Bit depth : 16 bits
    32. Stream size : 15.9 MiB (81%)
    33. Alignment : Aligned on interleaves
    34. Interleave, duration : 17 ms (1.00 video frame)
    Alles anzeigen

    Die Hörprobe findest du hier. An den Stellen 0:03, 0:55, 1:01, 1:04, 1:10 hört man das von mir gemeinte Knackgeräusch
    drive.google.com/file/d/0B3iDT…hZ3I1TDA/view?usp=sharing


    Falls noch etwas fehlt, reicht ich es natürlich nach.

    Danke!