Diverse avi lassen sich nicht mehr bearbeiten (Vegas Pro)

Diese Seite verwendet Cookies. Durch die Nutzung unserer Seite erklären Sie sich damit einverstanden, dass wir Cookies setzen. Weitere Informationen

  • Diverse avi lassen sich nicht mehr bearbeiten (Vegas Pro)

    Anzeige
    Moin.

    Ja, ich kenne die Problematik mit dem avi Import und Sony Vegas. In der Vergangenheit hatte ich aber schon die avi Files damit bearbeitet.
    Nur das Aufnahmeprogr. war ein anderes, zB DXTory.

    Nun habe ich mal Afterburner probiert und die Files lassen sich nicht mit Sony Vegas öffnen. Mit einem Player aber normal abspielen. Hier mal das Mediainfofile, vielleicht übersehe ich einfach was, weil aktuell massiv unter Stress. Errormeldung, die übliche von Sony Vegas, dass man das avi nicht öffnen kann. Jemand einen Tipp?

    Mediainfo:

    Quellcode

    1. General
    2. Complete name : C:\Rendern-Videos\Hearthstone_2016_07_17_23_49_34_855.avi
    3. Format : AVI
    4. Format/Info : Audio Video Interleave
    5. Format profile : OpenDML
    6. File size : 5.53 GiB
    7. Duration : 17 s 933 ms
    8. Overall bit rate : 2 649 Mb/s
    9. Video
    10. ID : 0
    11. Format : YUV
    12. Codec ID : NV12
    13. Codec ID/Info : 8-bit Y plane followed by an interleaved U/V plane with 2x2 subsampling
    14. Duration : 17 s 933 ms
    15. Bit rate : 2 647 Mb/s
    16. Width : 3 840 pixels
    17. Height : 2 160 pixels
    18. Display aspect ratio : 16:9
    19. Frame rate : 30.000 FPS
    20. Color space : YUV
    21. Compression mode : Lossless
    22. Bits/(Pixel*Frame) : 10.640
    23. Stream size : 5.53 GiB (100%)
    24. Audio
    25. ID : 1
    26. Format : PCM
    27. Format settings, Endianness : Little
    28. Format settings, Sign : Signed
    29. Codec ID : 00001000-0000-0100-8000-00AA00389B71
    30. Duration : 17 s 67 ms
    31. Bit rate mode : Constant
    32. Bit rate : 1 536 kb/s
    33. Channel(s) : 2 channels
    34. Channel positions : Front: L R
    35. Sampling rate : 48.0 kHz
    36. Bit depth : 16 bits
    37. Stream size : 3.13 MiB (0%)
    38. Alignment : Aligned on interleaves
    39. Interleave, duration : 35 ms (1.05 video frame)
    Alles anzeigen
  • DerOberNoob schrieb:

    Jemand einen Tipp?
    Ja. Du hast im Afterburner bei Video Format den Eintrag NV12 Kompression gewählt, auf deinem System wird aber nichts installiert sein, um mit unkomprimiertem NV12 umgehen zu können. Da wird es mit Sicherheit was geben, mir ist aber gerade aus dem Stegreif kein VFW-Decoder dafür bekannt.

    Vermeiden kannst du das Problem aber, indem du statt NV12 Kompression die VFW-Kompression wählst und dort über die Schaltfläche [...] einen installierten VFW-Codec auswählst. Ich würde wohl MagicYUV nehmen - den kannst du hier herunterladen. Settings würde ich ungefähr so nehmen.


    Bild von hier: MeGUI [2015] -- x264 - bester Encoder, beste Videoqualität auf Youtube ;-)

    Details zu den möglichen Einstellungen findest du entweder in den Tooltips von MagicYUV, oder in dem MagicYUV-Thread im Forum, falls du die Auswirkungen wissen möchtest.

    Dann müssten alle zukünftigen Aufnahmen gelesen werden können.
    --

    Und einen zweiten Tipp:
    Meines Wissens nach wird Vegas dir noch wegen der Tonspur Probleme machen. Der Afterburner nutzt WAVE-EX, sofern er theoretisch mehr als Stereo abgreifen kann. Vegas hat da meines Wissens nach Probleme und kann das nicht aus einer AVI ziehen. Lösung wäre, den Haken bei Multichannel Audio umwandeln in Stereo zu setzen und die Methode Stereo Rip zu wählen. Dann nimmt er den normalen WAVE-Encoder, womit Vegas keine Probleme hat.

    MfG
    Videoempfehlungen:
    ShimmyMC
    NuRap
    ShimmyMC
    Napoleon Bonaparte

    Dieser Beitrag wurde bereits 1 mal editiert, zuletzt von RealLiVe ()

  • RealLiVe schrieb:

    Ja. Du hast im Afterburner bei Video Format den Eintrag NV12 Kompression gewählt, auf deinem System wird aber nichts installiert sein, um mit unkomprimiertem NV12 umgehen zu können. Da wird es mit Sicherheit was geben, mir ist aber gerade aus dem Stegreif kein VFW-Decoder dafür bekannt.
    ffdshow kann alles
    Aktuelle Projekte/Videos




    Seit etlichen Monaten komplett veraltete Signatur, wie ihr sicherlich schon bemerkt habt. Habe mittlerweile mehr als 4 Projekte, weshalb die Signatur leider momentan gesprengt ist xD
    Notdürftig die Liste was aktuell läuft: Unreal | Complex DooM (LPT) | DooM 2016 | Need For Speed III: Hot Pursuit | Dirt Rally | Dirt 4 | WRC 7
  • Hallo,

    ja, NV12 war es. Ist mir erst nicht aufgefallen. Hatte das wohl noch irgendwie von OBS im Hintergrund. HAbe mal auf UTVideo umgestellt, damit kann ich es dann öffnen.

    ffdshow ist bei mir installiert.

    Mal sehen, noch läuft Afterburner irgendwie unrund, aber die Frage stelle ich dann im Sammelthread. Danke für die Hilfe.