OBS Studio, Monitor Auflösung (native) und unterschiedliche Gameauflösung

Diese Seite verwendet Cookies. Durch die Nutzung unserer Seite erklären Sie sich damit einverstanden, dass wir Cookies setzen. Weitere Informationen

  • OBS Studio, Monitor Auflösung (native) und unterschiedliche Gameauflösung

    Anzeige
    Moin.
    Kann ich OBS Studio irgendwie so hinbiegen dass eine Aufnahme funktioniert, wenn die native Monitorauflösung 4K ist, dass Spiel aber in 1080p?

    Da kommt bei mir immer nur Müll raus, da das aufgenommene File trotzdem immer in 4K ist, dann nur die Hälfte des Bildes zu sehen ist oder was auch immer.
    Irgend jemand einen Tipp, wie ich das regeln kann?

    Nein, ich kann das Game nicht auf 4k stellen, da es keinen UI Scaler hat und man nichts mehr erkennen kann.

    Danke
  • Ne, OBS zickt. Es ist immer der Meinung, es soll in 4K aufnehmen. Das Spiel läuft in 1080p und sieht normal aus, nur OBS macht daraus Wurstsalat ^^

    OBS liefert dann das ab:

    Quellcode

    1. General
    2. Complete name : C:\Rendern-Videos\2016-07-24 11-05-43.mp4
    3. Format : MPEG-4
    4. Format profile : Base Media
    5. Codec ID : isom (isom/iso2/avc1/mp41)
    6. File size : 1.98 GiB
    7. Duration : 23 min
    8. Overall bit rate mode : Constant
    9. Overall bit rate : 12.2 Mb/s
    10. Writing application : Lavf57.41.100
    11. Video
    12. ID : 1
    13. Format : AVC
    14. Format/Info : Advanced Video Codec
    15. Format profile : Main@L5.1
    16. Format settings, CABAC : Yes
    17. Format settings, ReFrames : 1 frame
    18. Codec ID : avc1
    19. Codec ID/Info : Advanced Video Coding
    20. Duration : 23 min
    21. Bit rate mode : Constant
    22. Bit rate : 12.0 Mb/s
    23. Width : 3 840 pixels
    24. Height : 2 160 pixels
    25. Display aspect ratio : 16:9
    26. Frame rate mode : Constant
    27. Frame rate : 30.000 FPS
    28. Color space : YUV
    29. Chroma subsampling : 4:2:0
    30. Bit depth : 8 bits
    31. Scan type : Progressive
    32. Bits/(Pixel*Frame) : 0.048
    33. Stream size : 1.95 GiB (99%)
    34. Color range : Limited
    35. Matrix coefficients : BT.709
    36. Audio
    37. ID : 2
    38. Format : AAC
    39. Format/Info : Advanced Audio Codec
    40. Format profile : LC
    41. Codec ID : 40
    42. Duration : 23 min
    43. Bit rate mode : Constant
    44. Bit rate : 160 kb/s
    45. Channel(s) : 2 channels
    46. Channel positions : Front: L R
    47. Sampling rate : 44.1 kHz
    48. Frame rate : 43.066 FPS (1024 spf)
    49. Compression mode : Lossy
    50. Stream size : 26.7 MiB (1%)
    51. Title : Track1
    52. Default : Yes
    53. Alternate group : 1
    Alles anzeigen
  • Hier Screenshots.

    Bild 1 steht in dem Beispiel auf 1080, ist aber egal ob da 1080 steht odet 4k. Es kommt immer der Salat bei raus, der oben gezeigt wurde,

    dropbox.com/s/xmvgssltthcklgz/OBS-01.PNG?dl=0

    Bild 2 zeigt die anderen Settings. Auch hier ist es egal ob umskaliert aktiviert ist oder nicht.

    dropbox.com/s/dbfgei30u0ha837/OBS-02.PNG?dl=0

    Das ist übrigens bei allen Spielen so, die ich nicht in der native Auflösung abspielen kann.
  • Edit, zu früh gefreut.

    während es in der OBS Vorschau normal aussieht, ist das Bild in der Aufnahme nur noch halb vorhanden. Auch der Mousezeiger ist dann einfach viel zu groß, sieht aus wie ein Mousezeiger aus 480p Zeiten ;)

    Der Mousezeigen wird dann auch gerne mal nicht aufgezeichnet, gleiches Spiel, je nach Lust und Laune von OBS.
    Wenn der Mousezeigen nicht aufgezeichnet wird, passt das Bild, ist er groß wie aus Urzeiten, ist auch das Bild nicht vollkommen drauf. Warum auch immer.

    Ich weiss nicht mehr woran das liegt. :(

    Mediainfo der Aufnahme:

    Spoiler anzeigen
    Allgemein
    Vollständiger Name : C:\Rendern-Videos\2016-07-26 12-52-12.mp4
    Format : MPEG-4
    Format-Profil : Base Media
    Codec-ID : isom (isom/iso2/avc1/mp41)
    Dateigröße : 7,54 GiB
    Dauer : 53 min
    Modus der Gesamtbitrate : konstant
    Gesamte Bitrate : 20,2 Mb/s
    Kodierendes Programm : Lavf57.41.100

    Video
    ID : 1
    Format : AVC
    Format/Info : Advanced Video Codec
    Format-Profil : Main@L4
    Format-Einstellungen für CABAC : Ja
    Format-Einstellungen für ReFrames : 1 frame
    Codec-ID : avc1
    Codec-ID/Info : Advanced Video Coding
    Dauer : 53 min
    Bitraten-Modus : konstant
    Bitrate : 20,0 Mb/s
    Breite : 1 920 Pixel
    Höhe : 1 080 Pixel
    Bildseitenverhältnis : 16:9
    Modus der Bildwiederholungsrate : konstant
    Bildwiederholungsrate : 30,000 FPS
    ColorSpace : YUV
    ChromaSubsampling/String : 4:2:0
    BitDepth/String : 8 bits
    Scantyp : progressiv
    Bits/(Pixel*Frame) : 0.322
    Stream-Größe : 7,48 GiB (99%)
    colour_range : Limited
    matrix_coefficients : BT.709

    Audio
    ID : 2
    Format : AAC
    Format/Info : Advanced Audio Codec
    Format-Profil : LC
    Codec-ID : 40
    Dauer : 53 min
    Bitraten-Modus : konstant
    Bitrate : 162 kb/s
    Kanäle : 2 Kanäle
    Kanal-Positionen : Front: L R
    Samplingrate : 48,0 kHz
    Bildwiederholungsrate : 46,875 FPS (1024 spf)
    Stream-Größe : 62,0 MiB (1%)
    Titel : Track1
    Default : Ja
    Alternate group : 1

    Dieser Beitrag wurde bereits 3 mal editiert, zuletzt von DerOberNoob ()

  • Ok, die Ursache, mit dem nicht sichbaren Zeiger habe ich wohl gefunden. Das Bild ist nun ok, der Zeiger wird aber nicht angezeigt, weil er schlicht nicht im Bild ist, für OBS Studio ist der ausserhalb des Bildes (4k). Man sieht ihn ganz kurz, wenn ich im Spiel, mit der Mouse, ganz oben bin, dann taucht der ganz knapp am unteren Bildschirmrand auf.
  • So sieht das nun mit der Mouse aus Die sieht man ganz kurz und auch die Größe ist nicht wirklich richtig.
    Habe mal fix ein 10 Sekunden Video auf meinen normalen Account geladen.

    OBS wird wohl nicht wirklich mit so etwas umgehen können. :(



    Edit 2:

    Das Bild geht nun, nur die Mouse will nicht. Für OBS hat die Mouse wohl eine andere "Auflösung" Ich habe schon versucht es mit Szene Fenster Transformieren und dann manuelles Editieren zu lösen, geht aber nicht. Wobei ich auch nicht sicher bin ob das richtig ist, was ich da eintrage.

    Dieser Beitrag wurde bereits 1 mal editiert, zuletzt von DerOberNoob ()