Probleme mit einer N64-Aufnahme

Diese Seite verwendet Cookies. Durch die Nutzung unserer Seite erklären Sie sich damit einverstanden, dass wir Cookies setzen. Weitere Informationen

  • Probleme mit einer N64-Aufnahme

    Anzeige
    Hi, Leute,
    vor einigen Tagen habe ich ein paar Folgen von Pokemon Stadium für den N64 mittels meiner Hauupauge HD PVR 1 aufgenommen. Die Aufnahme lief gut, nur ist der Ton der Aufnahme aus einem mir unerfindlichen Grund asynchron. Ich dachte, vielleicht wird es ja nach dem deinterlacen besser, aber pustekuchen. Ich hab so einiges ausprobiert, aber nichts hat geholfen. Sicherlich gibt es hier einige Leute, die beim Encoden viel bewanderter sind als ich, die mir damit weiter helfen können.


    Spoiler anzeigen


    Quellcode

    1. Video
    2. ID : 4113 (0x1011)
    3. Menu ID : 1 (0x1)
    4. Format : AVC
    5. Format/Info : Advanced Video Codec
    6. Format profile : Main@L3.1
    7. Format settings, CABAC : Yes
    8. Format settings, ReFrames : 4 frames
    9. Format settings, GOP : M=4, N=32
    10. Codec ID : 27
    11. Duration : 47mn 1s
    12. Bit rate mode : Variable
    13. Bit rate : 4 712 Kbps
    14. Maximum bit rate : 20.0 Mbps
    15. Width : 720 pixels
    16. Height : 576 pixels
    17. Display aspect ratio : 4:3
    18. Frame rate : 25.000 fps
    19. Standard : PAL
    20. Color space : YUV
    21. Chroma subsampling : 4:2:0
    22. Bit depth : 8 bits
    23. Scan type : Interlaced
    24. Scan type, store method : Separated fields
    25. Scan order : Top Field First
    26. Bits/(Pixel*Frame) : 0.455
    27. Stream size : 1.55 GiB (88%)
    28. Color range : Limited
    29. Color primaries : BT.601 PAL
    30. Transfer characteristics : BT.470 System B, BT.470 System G
    31. Matrix coefficients : BT.601
    32. Audio
    33. ID : 4352 (0x1100)
    34. Menu ID : 1 (0x1)
    35. Format : AC-3
    36. Format/Info : Audio Coding 3
    37. Mode extension : CM (complete main)
    38. Format settings, Endianness : Big
    39. Codec ID : 129
    40. Duration : 47mn 1s
    41. Bit rate mode : Constant
    42. Bit rate : 384 Kbps
    43. Channel(s) : 2 channels
    44. Channel positions : Front: L R
    45. Sampling rate : 48.0 KHz
    46. Frame rate : 31.250 fps (1536 spf)
    47. Compression mode : Lossy
    48. Delay relative to video : -132ms
    49. Stream size : 129 MiB (7%)
    Alles anzeigen
    Ein echter Hingucker:


    Ob alleine oder mit Freunden - Spaß muss sein!
  • Da ich mit OBS leider kein Bild beim N64 hatte, habe ich das Hauppauge eigene Programm verwendet. Ich glaube, das heißt Hauppauge Capture. Jedenfalls habe ich dort keine Einstellungen für den Audiocodec gefunden. Ach ja, was mir auch noch aufgefallen ist, dass der Ton der Aufnahme ein wenig "stottert", beim spielen selbst war aber alles in Ordnung, das muss also an der Aufzeichnung liegen.
    Ein echter Hingucker:


    Ob alleine oder mit Freunden - Spaß muss sein!