.avi lässt sich nicht öffnen - Interleaves fehlen

Diese Seite verwendet Cookies. Durch die Nutzung unserer Seite erklären Sie sich damit einverstanden, dass wir Cookies setzen. Weitere Informationen

  • .avi lässt sich nicht öffnen - Interleaves fehlen

    Anzeige
    Hallo allerseits,

    ich weiß nicht mehr genau, ob ich die Aufnahme vorm Beenden des Spiels gestoppt habe oder nicht, aber auf jeden Fall lässt sich die fertige Datei nicht öffnen. Die .avi hat einen Header bekommen, nur fehlt es an "Interleaves". Wie bekomme ich die wieder hin? ?( Die Mediainfo der fehlerhaften Datei verrät Folgendes:
    Spoiler anzeigen
    Allgemein
    Vollständiger Name : Y:\F1 2016\F1_2016 2017-04-20 21-42-56-401_#159.2.avi
    Format : AVI
    Format/Info : Audio Video Interleave
    Dateigröße : 145 GiB
    Dauer : 59min
    Gesamte Bitrate : 347 Mbps
    Originale Source-Form/Vertrieb durch : Video:MagicYUV lossless v1.2rev2 (32 bit) Audio0:Lautsprecher (Sound Blaster Audigy FX) Audio1:Mikrofon (SC450USB ) Audio2:Line 1 (Virtual Audio Cable) Audio3:Line 2 (Virtual Audio Cable)
    Kodierendes Programm : DxtoryCore ver2.0.0.128

    Video
    ID : 0
    Format : MAGY
    Codec-ID : MAGY
    Dauer : 59min
    Bitrate : 328 Mbps
    Breite : 1 920 Pixel
    Höhe : 1 080 Pixel
    Bildseitenverhältnis : 16:9
    Bildwiederholungsrate : 48,000 FPS
    Bits/(Pixel*Frame) : 3.297
    Stream-Größe : 137 GiB (94%)

    Audio #1
    ID : 1
    Format : PCM
    Format-Einstellungen für Endianess : Little
    Format-Einstellungen für Sign : Signed
    Codec-ID : 1
    Dauer : 59min
    Bitraten-Modus : konstant
    Bitrate : 1 536 Kbps
    Kanäle : 2 Kanäle
    Samplingrate : 48,0 KHz
    BitDepth/String : 16 bits
    Stream-Größe : 658 MiB (0%)
    Ausrichtung : Ausgerichtet an Interleaves

    Audio #2
    ID : 2
    Format : PCM
    Format-Einstellungen für Endianess : Little
    Format-Einstellungen für Sign : Signed
    Codec-ID : 1
    Dauer : 59min
    Bitraten-Modus : konstant
    Bitrate : 1 152 Kbps
    Kanäle : 1 Kanal
    Samplingrate : 48,0 KHz
    BitDepth/String : 24 bits
    Stream-Größe : 494 MiB (0%)
    Ausrichtung : Ausgerichtet an Interleaves

    Audio #3
    ID : 3
    Format : PCM
    Format-Einstellungen für Endianess : Little
    Format-Einstellungen für Sign : Signed
    Codec-ID : 1
    Dauer : 59min
    Bitraten-Modus : konstant
    Bitrate : 1 536 Kbps
    Kanäle : 2 Kanäle
    Samplingrate : 48,0 KHz
    BitDepth/String : 16 bits
    Stream-Größe : 658 MiB (0%)
    Ausrichtung : Ausgerichtet an Interleaves

    Audio #4
    ID : 4
    Format : PCM
    Format-Einstellungen für Endianess : Little
    Format-Einstellungen für Sign : Signed
    Codec-ID : 1
    Dauer : 59min
    Bitraten-Modus : konstant
    Bitrate : 1 152 Kbps
    Kanäle : 1 Kanal
    Samplingrate : 48,0 KHz
    BitDepth/String : 24 bits
    Stream-Größe : 494 MiB (0%)
    Ausrichtung : Ausgerichtet an Interleaves


    Als Referenz dazu eine intakte Mediainfo, wo mir eben aufgefallen ist, was der kaputten Datei fehlt:
    Spoiler anzeigen
    Allgemein
    Vollständiger Name : Y:\F1 2016\F1_2016 2017-04-20 21-40-44-032_#159.1.avi
    Format : AVI
    Format/Info : Audio Video Interleave
    Format-Profil : OpenDML
    Dateigröße : 1,88 GiB
    Dauer : 1min 43s
    Gesamte Bitrate : 156 Mbps
    Originale Source-Form/Vertrieb durch : Video:MagicYUV lossless v1.2rev2 (32 bit) Audio0:Lautsprecher (Sound Blaster Audigy FX) Audio1:Mikrofon (SC450USB ) Audio2:Line 1 (Virtual Audio Cable) Audio3:Line 2 (Virtual Audio Cable)
    Kodierendes Programm : DxtoryCore ver2.0.0.128

    Video
    ID : 0
    Format : MAGY
    Codec-ID : MAGY
    Dauer : 1min 13s
    Bitrate : 210 Mbps
    Breite : 1 920 Pixel
    Höhe : 1 080 Pixel
    Bildseitenverhältnis : 16:9
    Bildwiederholungsrate : 48,000 FPS
    Bits/(Pixel*Frame) : 2.112
    Stream-Größe : 1,81 GiB (97%)

    Audio #1
    ID : 1
    Format : PCM
    Format-Einstellungen für Endianess : Little
    Format-Einstellungen für Sign : Signed
    Codec-ID : 1
    Dauer : 1min 43s
    Bitraten-Modus : konstant
    Bitrate : 1 536 Kbps
    Kanäle : 2 Kanäle
    Samplingrate : 48,0 KHz
    BitDepth/String : 16 bits
    Stream-Größe : 18,9 MiB (1%)
    Ausrichtung : Ausgerichtet an Interleaves
    Interleave, Dauer : 72 ms (3,44 Video-Frames)

    Audio #2
    ID : 2
    Format : PCM
    Format-Einstellungen für Endianess : Little
    Format-Einstellungen für Sign : Signed
    Codec-ID : 1
    Dauer : 1min 43s
    Bitraten-Modus : konstant
    Bitrate : 1 152 Kbps
    Kanäle : 1 Kanal
    Samplingrate : 48,0 KHz
    BitDepth/String : 24 bits
    Stream-Größe : 14,2 MiB (1%)
    Ausrichtung : Ausgerichtet an Interleaves
    Interleave, Dauer : 72 ms (3,44 Video-Frames)

    Audio #3
    ID : 3
    Format : PCM
    Format-Einstellungen für Endianess : Little
    Format-Einstellungen für Sign : Signed
    Codec-ID : 1
    Dauer : 1min 43s
    Bitraten-Modus : konstant
    Bitrate : 1 536 Kbps
    Kanäle : 2 Kanäle
    Samplingrate : 48,0 KHz
    BitDepth/String : 16 bits
    Stream-Größe : 18,9 MiB (1%)
    Ausrichtung : Ausgerichtet an Interleaves
    Interleave, Dauer : 72 ms (3,44 Video-Frames)

    Audio #4
    ID : 4
    Format : PCM
    Format-Einstellungen für Endianess : Little
    Format-Einstellungen für Sign : Signed
    Codec-ID : 1
    Dauer : 1min 43s
    Bitraten-Modus : konstant
    Bitrate : 1 152 Kbps
    Kanäle : 1 Kanal
    Samplingrate : 48,0 KHz
    BitDepth/String : 24 bits
    Stream-Größe : 14,2 MiB (1%)
    Ausrichtung : Ausgerichtet an Interleaves
    Interleave, Dauer : 72 ms (3,44 Video-Frames)



    PS: Die Datei lässt sich öffnen und abspielen, nur dauert es ewig. Vorspulen und importieren in Sony Vegas ist nicht möglich.

    Dieser Beitrag wurde bereits 1 mal editiert, zuletzt von 9NinetySix6 ()

  • Probiere es mal mit der aktuellen FFmpeg Version neu zu reencoden.

    ffmpeg.zeranoe.com/builds/

    ffmpeg -i "Y:\F1 2016\F1_2016 2017-04-20 21-42-56-401_#159.2.avi" -map 0:v -c:v magicyuv - map 0:a -c:a pcm_s16le "Neu.avi"

    Wenn FFmpeg ein Fehler im Prozess Verlauf aufweisen tut, diesen dann bitte mal posten.
  • Sagaras schrieb:

    Probiere es mal mit der aktuellen FFmpeg Version neu zu reencoden.

    ffmpeg.zeranoe.com/builds/

    ffmpeg -i "Y:\F1 2016\F1_2016 2017-04-20 21-42-56-401_#159.2.avi" -map 0:v -c:v magicyuv - map 0:a -c:a pcm_s16le "Neu.avi"

    Wenn FFmpeg ein Fehler im Prozess Verlauf aufweisen tut, diesen dann bitte mal posten.
    Reicht da kein kopieren? Klingt mir ja eher nach indexprobleme wieder^^
    Aktuelle Projekte/Videos




    Seit etlichen Monaten komplett veraltete Signatur, wie ihr sicherlich schon bemerkt habt. Habe mittlerweile mehr als 4 Projekte, weshalb die Signatur leider momentan gesprengt ist xD
    Notdürftig die Liste was aktuell läuft: Unreal | Complex DooM (LPT) | DooM 2016 | Need For Speed III: Hot Pursuit | Dirt Rally | Dirt 4 | WRC 7
  • De-M-oN schrieb:

    Reicht da kein kopieren? Klingt mir ja eher nach indexprobleme wieder^^
    Laut Mediainfo ist alles da. Abspielen kann er es auch. Also würde ich den Streams einfach nur noch mal reencoden und somit die GOP wieder säubern, statt gleich neu zu indexieren. Wenn es dann noch nicht klappt, kann er es mit indexieren versuchen. Macht FFmpeg aber ohnehin automatisch bei dem Prozess.
  • Anzeige

    Sagaras schrieb:

    Laut Mediainfo ist alles da. Abspielen kann er es auch.
    Das ist bei nur defekten indexeinträgen auch so gegeben :)
    Ich sag nur bei meinen damaligen Amarec Aufnahmen wo ja des öfteren mal defekte indexe waren. Abspielbar und Header da. Aber durch dem defekten Index an einer bestimmten Stelle skipt der beim Abspielen halt 'nen Anteil des Videos.
    Aktuelle Projekte/Videos




    Seit etlichen Monaten komplett veraltete Signatur, wie ihr sicherlich schon bemerkt habt. Habe mittlerweile mehr als 4 Projekte, weshalb die Signatur leider momentan gesprengt ist xD
    Notdürftig die Liste was aktuell läuft: Unreal | Complex DooM (LPT) | DooM 2016 | Need For Speed III: Hot Pursuit | Dirt Rally | Dirt 4 | WRC 7
  • Sagaras schrieb:

    Probiere es mal mit der aktuellen FFmpeg Version neu zu reencoden.

    ffmpeg.zeranoe.com/builds/

    ffmpeg -i "Y:\F1 2016\F1_2016 2017-04-20 21-42-56-401_#159.2.avi" -map 0:v -c:v magicyuv - map 0:a -c:a pcm_s16le "Neu.avi"

    Wenn FFmpeg ein Fehler im Prozess Verlauf aufweisen tut, diesen dann bitte mal posten.
    Dabei kommt das raus:
    Spoiler anzeigen
    C:\Users\MG96SP99\Desktop>ffmpeg -i "Y:\F1 2016\F1_2016 2017-04-20 21-42-56-401_
    #159.2.avi" -map 0:v -c:v magicyuv - map 0:a -c:a pcm_s16le "Neu.avi"
    ffmpeg version N-85588-g6108805 Copyright (c) 2000-2017 the FFmpeg developers
    built with gcc 6.3.0 (GCC)
    configuration: --enable-gpl --enable-version3 --enable-cuda --enable-cuvid --e
    nable-d3d11va --enable-dxva2 --enable-libmfx --enable-nvenc --enable-avisynth --
    enable-bzlib --enable-fontconfig --enable-frei0r --enable-gnutls --enable-iconv
    --enable-libass --enable-libbluray --enable-libbs2b --enable-libcaca --enable-li
    bfreetype --enable-libgme --enable-libgsm --enable-libilbc --enable-libmodplug -
    -enable-libmp3lame --enable-libopencore-amrnb --enable-libopencore-amrwb --enabl
    e-libopenh264 --enable-libopenjpeg --enable-libopus --enable-librtmp --enable-li
    bsnappy --enable-libsoxr --enable-libspeex --enable-libtheora --enable-libtwolam
    e --enable-libvidstab --enable-libvo-amrwbenc --enable-libvorbis --enable-libvpx
    --enable-libwavpack --enable-libwebp --enable-libx264 --enable-libx265 --enable
    -libxavs --enable-libxvid --enable-libzimg --enable-lzma --enable-zlib
    libavutil 55. 61.100 / 55. 61.100
    libavcodec 57. 93.100 / 57. 93.100
    libavformat 57. 72.101 / 57. 72.101
    libavdevice 57. 7.100 / 57. 7.100
    libavfilter 6. 84.101 / 6. 84.101
    libswscale 4. 7.101 / 4. 7.101
    libswresample 2. 8.100 / 2. 8.100
    libpostproc 54. 6.100 / 54. 6.100
    Guessed Channel Layout for Input Stream #0.1 : stereo
    Guessed Channel Layout for Input Stream #0.2 : mono
    Guessed Channel Layout for Input Stream #0.3 : stereo
    Guessed Channel Layout for Input Stream #0.4 : mono
    Input #0, avi, from 'Y:\F1 2016\F1_2016 2017-04-20 21-42-56-401_#159.2.avi':
    Metadata:
    encoder : DxtoryCore ver2.0.0.128
    ISRC : Video:MagicYUV lossless v1.2rev2 (32 bit) Audio0:Lautsprec
    her (Sound Blaster Audigy FX) Audio1:Mikrofon (SC450USB ) Audio2
    :Line 1 (Virtual Audio Cable) Audio3:Line 2 (Virtual Audio Cable)
    Duration: 00:59:55.17, start: 0.000000, bitrate: 347299 kb/s
    Stream #0:0: Video: magicyuv (MAGY / 0x5947414D), yuv420p, 1920x1080, 48 fps
    , 48 tbr, 48 tbn, 48 tbc
    Stream #0:1: Audio: pcm_s16le ([1][0][0][0] / 0x0001), 48000 Hz, stereo, s16
    , 1536 kb/s
    Stream #0:2: Audio: pcm_s24le ([1][0][0][0] / 0x0001), 48000 Hz, mono, s32 (
    24 bit), 1152 kb/s
    Stream #0:3: Audio: pcm_s16le ([1][0][0][0] / 0x0001), 48000 Hz, stereo, s16
    , 1536 kb/s
    Stream #0:4: Audio: pcm_s24le ([1][0][0][0] / 0x0001), 48000 Hz, mono, s32 (
    24 bit), 1152 kb/s
    [NULL @ 0000000000560dc0] Unable to find a suitable output format for 'pipe:'
    pipe:: Invalid argument
  • würd halt einfach mal nur das machen.
    ffmpeg -i quell.avi -acodec copy -vcodec copy ziel.avi
    Aktuelle Projekte/Videos




    Seit etlichen Monaten komplett veraltete Signatur, wie ihr sicherlich schon bemerkt habt. Habe mittlerweile mehr als 4 Projekte, weshalb die Signatur leider momentan gesprengt ist xD
    Notdürftig die Liste was aktuell läuft: Unreal | Complex DooM (LPT) | DooM 2016 | Need For Speed III: Hot Pursuit | Dirt Rally | Dirt 4 | WRC 7
  • Da wird auch eine Fehlermeldung ausgespuckt:
    Spoiler anzeigen
    C:\Users\MG96SP99\Desktop>ffmpeg -i Y:\F1 2016\F1_2016 2017-04-20 21-42-56-401_#
    159.2.avi -acodec copy -vcodec copy Y:\F1 2016\F1_2016 2017-04-20 21-42-56-401_#
    159.10.avi
    ffmpeg version N-85588-g6108805 Copyright (c) 2000-2017 the FFmpeg developers
    built with gcc 6.3.0 (GCC)
    configuration: --enable-gpl --enable-version3 --enable-cuda --enable-cuvid --e
    nable-d3d11va --enable-dxva2 --enable-libmfx --enable-nvenc --enable-avisynth --
    enable-bzlib --enable-fontconfig --enable-frei0r --enable-gnutls --enable-iconv
    --enable-libass --enable-libbluray --enable-libbs2b --enable-libcaca --enable-li
    bfreetype --enable-libgme --enable-libgsm --enable-libilbc --enable-libmodplug -
    -enable-libmp3lame --enable-libopencore-amrnb --enable-libopencore-amrwb --enabl
    e-libopenh264 --enable-libopenjpeg --enable-libopus --enable-librtmp --enable-li
    bsnappy --enable-libsoxr --enable-libspeex --enable-libtheora --enable-libtwolam
    e --enable-libvidstab --enable-libvo-amrwbenc --enable-libvorbis --enable-libvpx
    --enable-libwavpack --enable-libwebp --enable-libx264 --enable-libx265 --enable
    -libxavs --enable-libxvid --enable-libzimg --enable-lzma --enable-zlib
    libavutil 55. 61.100 / 55. 61.100
    libavcodec 57. 93.100 / 57. 93.100
    libavformat 57. 72.101 / 57. 72.101
    libavdevice 57. 7.100 / 57. 7.100
    libavfilter 6. 84.101 / 6. 84.101
    libswscale 4. 7.101 / 4. 7.101
    libswresample 2. 8.100 / 2. 8.100
    libpostproc 54. 6.100 / 54. 6.100
    Y:\F1: No such file or directory
  • Setz bitte die Pfade in " "
    Sonst gibt es bei Pfaden mit enthaltenen leerzeilen naturgemäß Probleme, weil die Zeile dann ja nicht mehr wissen kann ob neuer Parameter oder immer noch der Pfad.
    Und deine Pfade haben Leerzeilen drin. Nämlich dein F1 2016 Ordner.
    Aktuelle Projekte/Videos




    Seit etlichen Monaten komplett veraltete Signatur, wie ihr sicherlich schon bemerkt habt. Habe mittlerweile mehr als 4 Projekte, weshalb die Signatur leider momentan gesprengt ist xD
    Notdürftig die Liste was aktuell läuft: Unreal | Complex DooM (LPT) | DooM 2016 | Need For Speed III: Hot Pursuit | Dirt Rally | Dirt 4 | WRC 7
  • Der encodiert nicht. Der kopiert die Streams nur in eine neue Datei. Die Geschwindigkeit hängt demnach von deiner Festplattenlese- und schreibgeschwindigkeit ab, von der Decoderleistung deines Videocodecs (& CPU), und der defektgrad deiner Datei.

    Rechne mit Datenverlust, wenn es wirklich defekte Indexe sind. Kann sein das dir 'ne Minute fehlen wird.
    Aktuelle Projekte/Videos




    Seit etlichen Monaten komplett veraltete Signatur, wie ihr sicherlich schon bemerkt habt. Habe mittlerweile mehr als 4 Projekte, weshalb die Signatur leider momentan gesprengt ist xD
    Notdürftig die Liste was aktuell läuft: Unreal | Complex DooM (LPT) | DooM 2016 | Need For Speed III: Hot Pursuit | Dirt Rally | Dirt 4 | WRC 7
  • Nachdem ich beim letzten Mal vergessen habe die Aufnahme zu beenden, bevor ich das Spiel geschlossen habe, ist mir diesmal Dxtory abgeschmiert, als ich den Aufnahmeknopf zum Beenden gedrückt habe. Nun habe ich die beiden Zeilen von @Sagaras ausprobiert


    Quellcode

    1. ffmpeg -i "Y:\F12017\F1_2017_2017-08-31_21-34-24-306_#012.avi" -map 0:v -c:v magicyuv - map 0:a -c:a pcm_s16le "F12017_#012Neu2.avi"
    Resultat: Gleicher Fehler wie damals.

    Spoiler anzeigen
    C:\Users\MG96SP99\Desktop>ffmpeg -i "Y:\F12017\F1_2017_2017-08-31_21-34-24-306_#
    012.avi" -map 0:v -c:v magicyuv - map 0:a -c:a pcm_s16le "F12017_#012Neu2.avi"
    ffmpeg version N-85588-g6108805 Copyright (c) 2000-2017 the FFmpeg developers
    built with gcc 6.3.0 (GCC)
    configuration: --enable-gpl --enable-version3 --enable-cuda --enable-cuvid --e
    nable-d3d11va --enable-dxva2 --enable-libmfx --enable-nvenc --enable-avisynth --
    enable-bzlib --enable-fontconfig --enable-frei0r --enable-gnutls --enable-iconv
    --enable-libass --enable-libbluray --enable-libbs2b --enable-libcaca --enable-li
    bfreetype --enable-libgme --enable-libgsm --enable-libilbc --enable-libmodplug -
    -enable-libmp3lame --enable-libopencore-amrnb --enable-libopencore-amrwb --enabl
    e-libopenh264 --enable-libopenjpeg --enable-libopus --enable-librtmp --enable-li
    bsnappy --enable-libsoxr --enable-libspeex --enable-libtheora --enable-libtwolam
    e --enable-libvidstab --enable-libvo-amrwbenc --enable-libvorbis --enable-libvpx
    --enable-libwavpack --enable-libwebp --enable-libx264 --enable-libx265 --enable
    -libxavs --enable-libxvid --enable-libzimg --enable-lzma --enable-zlib
    libavutil 55. 61.100 / 55. 61.100
    libavcodec 57. 93.100 / 57. 93.100
    libavformat 57. 72.101 / 57. 72.101
    libavdevice 57. 7.100 / 57. 7.100
    libavfilter 6. 84.101 / 6. 84.101
    libswscale 4. 7.101 / 4. 7.101
    libswresample 2. 8.100 / 2. 8.100
    libpostproc 54. 6.100 / 54. 6.100
    Guessed Channel Layout for Input Stream #0.1 : stereo
    Guessed Channel Layout for Input Stream #0.2 : mono
    Guessed Channel Layout for Input Stream #0.3 : stereo
    Guessed Channel Layout for Input Stream #0.4 : mono
    Input #0, avi, from 'Y:\F12017\F1_2017_2017-08-31_21-34-24-306_#012.avi':
    Metadata:
    encoder : DxtoryCore ver2.0.0.128
    ISRC : Video:MagicYUV lossless v1.2rev2 (32 bit) Audio0:Lautsprec
    her (Sound Blaster Audigy FX) Audio1:Mikrofon (SC450USB ) Audio2
    :Line 1 (Virtual Audio Cable) Audio3:Line 2 (Virtual Audio Cable)
    Duration: 01:53:13.83, start: 0.000000, bitrate: 1170012 kb/s
    Stream #0:0: Video: magicyuv (MAGY / 0x5947414D), yuv420p, 3840x2160, 48 fps
    , 48 tbr, 48 tbn, 48 tbc
    Stream #0:1: Audio: pcm_s16le ([1][0][0][0] / 0x0001), 48000 Hz, stereo, s16
    , 1536 kb/s
    Stream #0:2: Audio: pcm_s16le ([1][0][0][0] / 0x0001), 48000 Hz, mono, s16,
    768 kb/s
    Stream #0:3: Audio: pcm_s16le ([1][0][0][0] / 0x0001), 48000 Hz, stereo, s16
    , 1536 kb/s
    Stream #0:4: Audio: pcm_s16le ([1][0][0][0] / 0x0001), 48000 Hz, mono, s16,
    768 kb/s
    [NULL @ 00000000004918e0] Unable to find a suitable output format for 'pipe:'
    pipe:: Invalid argument


    Und den spärlichen Code von @De-M-oN

    Spoiler anzeigen
    ffmpeg -i "Y:\F12017\F1_2017_2017-08-31_21-34-24-306_#012.avi" -acodec copy -vcodec copy "Y:\F12017\F12017_#012Neu.avi"


    Läuft durch, allerdings kommen dabei nur die ersten 21 Sekunden der fast zwei Stunden bei raus :/ Hat wer noch einen anderen Tipp, um die Aufnahme zu retten? Sie lässt sich wieder weder von MPC-HC abspielen noch bei Sony Vegas öffnen.

    Anbei nochmal die Mediainfo der Rohdatei. Dxtory hat zum Absturz leider keinen ErrorLog-Eintrag erstellt.

    Spoiler anzeigen
    Allgemein
    Vollständiger Name : Y:\F12017\F1_2017_2017-08-31_21-34-24-306_#012.avi
    Format : AVI
    Format/Info : Audio Video Interleave
    Dateigröße : 925 GiB
    Dauer : 1h 53min
    Gesamte Bitrate : 1 170 Mbps
    Originale Source-Form/Vertrieb durch : Video:MagicYUV lossless v1.2rev2 (32 bit) Audio0:Lautsprecher (Sound Blaster Audigy FX) Audio1:Mikrofon (SC450USB ) Audio2:Line 1 (Virtual Audio Cable) Audio3:Line 2 (Virtual Audio Cable)
    Kodierendes Programm : DxtoryCore ver2.0.0.128

    Video
    ID : 0
    Format : MAGY
    Codec-ID : MAGY
    Dauer : 1h 53min
    Bitrate : 1 119 Mbps
    Breite : 3 840 Pixel
    Höhe : 2 160 Pixel
    Bildseitenverhältnis : 16:9
    Bildwiederholungsrate : 48,000 FPS
    Bits/(Pixel*Frame) : 2.811
    Stream-Größe : 885 GiB (96%)

    Audio #1
    ID : 1
    Format : PCM
    Format-Einstellungen für Endianess : Little
    Format-Einstellungen für Sign : Signed
    Codec-ID : 1
    Dauer : 1h 53min
    Bitraten-Modus : konstant
    Bitrate : 1 536 Kbps
    Kanäle : 2 Kanäle
    Samplingrate : 48,0 KHz
    BitDepth/String : 16 bits
    Stream-Größe : 1,21 GiB (0%)
    Ausrichtung : Ausgerichtet an Interleaves

    Audio #2
    ID : 2
    Format : PCM
    Format-Einstellungen für Endianess : Little
    Format-Einstellungen für Sign : Signed
    Codec-ID : 1
    Dauer : 1h 53min
    Bitraten-Modus : konstant
    Bitrate : 768 Kbps
    Kanäle : 1 Kanal
    Samplingrate : 48,0 KHz
    BitDepth/String : 16 bits
    Stream-Größe : 622 MiB (0%)
    Ausrichtung : Ausgerichtet an Interleaves

    Audio #3
    ID : 3
    Format : PCM
    Format-Einstellungen für Endianess : Little
    Format-Einstellungen für Sign : Signed
    Codec-ID : 1
    Dauer : 1h 53min
    Bitraten-Modus : konstant
    Bitrate : 1 536 Kbps
    Kanäle : 2 Kanäle
    Samplingrate : 48,0 KHz
    BitDepth/String : 16 bits
    Stream-Größe : 1,21 GiB (0%)
    Ausrichtung : Ausgerichtet an Interleaves

    Audio #4
    ID : 4
    Format : PCM
    Format-Einstellungen für Endianess : Little
    Format-Einstellungen für Sign : Signed
    Codec-ID : 1
    Dauer : 1h 53min
    Bitraten-Modus : konstant
    Bitrate : 768 Kbps
    Kanäle : 1 Kanal
    Samplingrate : 48,0 KHz
    BitDepth/String : 16 bits
    Stream-Größe : 622 MiB (0%)
    Ausrichtung : Ausgerichtet an Interleaves

  • Ich habe mir den Thread mal durch geschaut und noch nicht gesehen, dass dir avifix von dxtory empfohlen wurde. Schonmal probiert?

    In dxtory unten links das orangene symbol.

    Dieser Beitrag wurde bereits 1 mal editiert, zuletzt von DarkHunterRPGx () aus folgendem Grund: und zu unten korrigiert .. auto Korrektur vom handy