Bestimmtes MP4 Video kann nicht abgespielt werden

Diese Seite verwendet Cookies. Durch die Nutzung unserer Seite erklären Sie sich damit einverstanden, dass wir Cookies setzen. Weitere Informationen

  • Bestimmtes MP4 Video kann nicht abgespielt werden

    Anzeige
    Hallo,

    ich habe über Google leider nur das Allgemeine MP4-Abspielproblem Hilfe gefunden, aber das hat leider nichts geholfen.
    Und zwar geht es mir um ein etwas älteres MP4 Video, welches nicht mehr abspielbar ist. Alle anderen funktionieren einwandfrei.

    VLC reagiert erst gar nicht.
    Der WMP sagt, es sei ein Problem aufgetreten. Und in Youtube hieß es nach dem Hochladen die Dateiverarbeitung sei nicht möglich, kann es also dort auch nicht anschauen.
    Konvertieren in ein anderes Format geht auch nicht, wird als "falsch" erkannt.

    Weiß jemand, wie ich dieses Video zum laufen kriege? :(
  • Da steht nichts drin, außer..

    Spoiler anzeigen
    General
    Complete name : K:\1_Videos\Das Video.mp4
    File size : 411 MiB




    Als Beispiel ein anderes MP4 Video..

    Spoiler anzeigen
    General
    Complete name : K:\1_Videos\MOV_0075.mp4
    Format : MPEG-4
    Format profile : Base Media
    Codec ID : isom
    File size : 372 MiB
    Duration : 4mn 17s
    Overall bit rate : 12.1 Mbps

    Video
    ID : 2
    Format : AVC
    Format/Info : Advanced Video Codec
    Format profile : Baseline@L3.1
    Format settings, CABAC : No
    Format settings, ReFrames : 1 frame
    Format settings, GOP : M=1, N=31
    Codec ID : avc1
    Codec ID/Info : Advanced Video Coding
    Duration : 4mn 17s
    Bit rate : 12.0 Mbps
    Width : 1 280 pixels
    Height : 720 pixels
    Display aspect ratio : 16:9
    Frame rate mode : Variable
    Frame rate : 29.970 fps
    Minimum frame rate : 10.327 fps
    Maximum frame rate : 11 250.000 fps
    Color space : YUV
    Chroma subsampling : 4:2:0
    Bit depth : 8 bits
    Scan type : Progressive
    Bits/(Pixel*Frame) : 0.435
    Stream size : 367 MiB (99%)
    Title : VideoHandle
    Language : English

    Audio
    ID : 1
    Format : AAC
    Format/Info : Advanced Audio Codec
    Format profile : LC
    Codec ID : 40
    Duration : 4mn 16s
    Bit rate mode : Constant
    Bit rate : 128 Kbps
    Nominal bit rate : 96.0 Kbps
    Channel(s) : 2 channels
    Channel positions : Front: L R
    Sampling rate : 48.0 KHz
    Compression mode : Lossy
    Stream size : 3.91 MiB (1%)
    Title : SoundHandle
    Language : English

  • Korrupte MP4 Dateien sind für immer korrupt. Da hilft dir auch kein muxen.

    OBS gibt doch sogar extra Warnung, das MP4 Dateien nicht wiederherstellbar sind, sollten sie kaputt sein und raten dir dringend zu MKV. (Ich geh mal von aus das die MP4 aus OBS stammt? Ansonsten kannst du die Warnung ja nicht kennen, aber dann weißtes ja für die Zukunft)
    Aktuelle Projekte/Videos


  • De-M-oN schrieb:

    OBS gibt doch sogar extra Warnung, das MP4 Dateien nicht wiederherstellbar sind, sollten sie kaputt sein und raten dir dringend zu MKV. (Ich geh mal von aus das die MP4 aus OBS stammt? Ansonsten kannst du die Warnung ja nicht kennen, aber dann weißtes ja für die Zukunft)

    Nee, die Datei ist schon paar Jahre alt und wurde damals mit Magix aus verschiedenen Handyaufnahmen zusammengeschnitten. Hat nichts mit Gaming, Youtube oder sowas zutun.
    Blöd, hätte gedacht, es gibt irgendeine Möglichkeit, dass man das Material zumindest noch anschauen kann, da es ja auch trotzdem 400 MB sind, die müssen ja auch irgendwoher kommen.