Problem mit TMPGEnc

Diese Seite verwendet Cookies. Durch die Nutzung unserer Seite erklären Sie sich damit einverstanden, dass wir Cookies setzen. Weitere Informationen

  • Problem mit TMPGEnc

    Anzeige
    Hi,
    ich rendere seit Ende letzten Jahres mit TMPGEnc und bin echt super zufrieden damit. Nur jetzt steh ich vor einem Problem. Es gibt genau einen Part meines Assassin's-Creed-2-Let's-Plays den ich nicht rendern kann. Aus irgendeinem Grund bleibt bei diesem einem Part immer das Rendern hängen und es kommt der Fehler "The connection with TMPGEncEncoderVMW5Encoder.exe has been severed." Der Fehler trat gestern auf und ich hab auch schon andere Parts probiert, es geht nur dieser eine nicht! Korrupt dürften die Dateien eigentlich nicht sein... :/
    Kann mir jemand helfen?
  • tmpgenc 5 kann kein mkv einlesen. scheint doch zu gehen.

    schuld wird vermutlich die aufnahme sein wie julien schon sagte. also bitte mal das aufnahmeprogramm und die codec-einstellungen nennen.
    ich hatte mal ein ähnliches phänomen, da war das problem, dass der ton kürzer war als das video.

    gib uns doch mal die mediainfo mediainfo.sourceforge.net/de der datei (ansicht auf text und hier reinkopieren).

    Dieser Beitrag wurde bereits 1 mal editiert, zuletzt von sam ()

  • Anzeige
    Okay, ich lad gleich die Media Info hoch

    Bitte schön.
    Spoiler anzeigen
    omplete name : G:\Let's Play\Assassin's Creed 2\Video\avi\098\AssassinsCreedIIGame 2012-04-21 00-31-01-821.avi
    Format : AVI
    Format/Info : Audio Video Interleave
    Format profile : OpenDML
    File size : 7.93 GiB
    Duration : 7mn 27s
    Overall bit rate : 152 Mbps
    Original source form/Distributed by : Video:Lagarith Lossless Codec Audio0:Stereomix (Realtek High Definition Audio) Audio1:Mikrofon (2- Logitech USB Microphone)
    Writing application : DxtoryCore ver2.0.0.112

    Video
    ID : 0
    Format : Lagarith
    Codec ID : LAGS
    Duration : 7mn 27s
    Bit rate : 150 Mbps
    Width : 1 600 pixels
    Height : 900 pixels
    Display aspect ratio : 16:9
    Frame rate : 30.000 fps
    Color space : YUV
    Chroma subsampling : 4:2:0
    Bit depth : 8 bits
    Bits/(Pixel*Frame) : 3.461
    Stream size : 7.79 GiB (98%)

    Audio #1
    ID : 1
    Format : PCM
    Format settings, Endianness : Little
    Format settings, Sign : Signed
    Codec ID : 1
    Duration : 7mn 27s
    Bit rate mode : Constant
    Bit rate : 1 411.2 Kbps
    Channel(s) : 2 channels
    Sampling rate : 44.1 KHz
    Bit depth : 16 bits
    Stream size : 75.3 MiB (1%)
    Interleave, duration : 999 ms (29.96 video frames)

    Audio #2
    ID : 2
    Format : PCM
    Format settings, Endianness : Little
    Format settings, Sign : Signed
    Codec ID : 1
    Duration : 7mn 27s
    Bit rate mode : Constant
    Bit rate : 1 411.2 Kbps
    Channel(s) : 2 channels
    Sampling rate : 44.1 KHz
    Bit depth : 16 bits
    Stream size : 75.3 MiB (1%)
    Interleave, duration : 999 ms (29.96 video frames)

    Dieser Beitrag wurde bereits 1 mal editiert, zuletzt von beLIEverNoOne ()